<?xml version="1.0" standalone="no"?>
<!DOCTYPE svg PUBLIC "-//W3C//DTD SVG 1.1//EN" "http://www.w3.org/Graphics/SVG/1.1/DTD/svg11.dtd" >
<svg xmlns="http://www.w3.org/2000/svg">
<metadata></metadata>
<defs>
<font id="texgyreherosbold" horiz-adv-x="1138" >
<font-face units-per-em="2048" ascent="1606" descent="-442" />
<missing-glyph horiz-adv-x="569" />
<glyph unicode="IJ" horiz-adv-x="1671" d="M123 0v1493h307v-1493h-307zM602 428v125h307v-121q0 -103 39 -148.5t127 -45.5q80 0 123 45t43 129v1081h307v-1081q0 -209 -125 -323t-354 -114q-214 0 -340.5 117.5t-126.5 335.5z" />
<glyph unicode="ij" horiz-adv-x="1107" d="M123 0v1106h287v-1106h-287zM127 1239v287h287v-287h-287zM563 -207q27 -8 51 -8q46 0 65 19.5t19 66.5v1235h287v-1299q0 -135 -59 -194t-193 -59q-75 0 -170 10v229zM698 1239v287h287v-287h-287z" />
<glyph unicode="fk" horiz-adv-x="1837" d="M29 893v190h155v134q0 276 283 276q85 0 164 -6v-215q-37 6 -82 6q-78 0 -78 -86v-109h170v-190h-170v-893h-287v893h-155zM819 0v1493h287v-817l362 430h326l-377 -418l404 -688h-336l-264 487l-115 -125v-362h-287z" />
<glyph unicode="ff" horiz-adv-x="1304" d="M29 893v190h155v134q0 276 283 276q85 0 164 -6v-215q-37 6 -82 6q-78 0 -78 -86v-109h348v134q0 276 283 276q84 0 164 -6v-215q-38 6 -82 6q-78 0 -78 -86v-109h170v-190h-170v-893h-287v893h-348v-893h-287v893h-155z" />
<glyph unicode="fi" horiz-adv-x="1251" d="M29 893v190h155v134q0 276 283 276q85 0 164 -6v-215q-37 6 -82 6q-78 0 -78 -86v-109h170v-190h-170v-893h-287v893h-155zM819 0v1106h287v-1106h-287zM819 1239v287h287v-287h-287z" />
<glyph unicode="fl" horiz-adv-x="1251" d="M29 893v190h155v134q0 276 283 276q85 0 164 -6v-215q-37 6 -82 6q-78 0 -78 -86v-109h170v-190h-170v-893h-287v893h-155zM819 0v1493h287v-1493h-287z" />
<glyph unicode="ffi" horiz-adv-x="1886" d="M29 893v190h155v134q0 276 283 276q85 0 164 -6v-215q-37 6 -82 6q-78 0 -78 -86v-109h348v134q0 276 283 276q84 0 164 -6v-215q-38 6 -82 6q-78 0 -78 -86v-109h170v-190h-170v-893h-287v893h-348v-893h-287v893h-155zM1454 0v1106h287v-1106h-287zM1454 1239v287h287 v-287h-287z" />
<glyph unicode="ffl" horiz-adv-x="1886" d="M29 893v190h155v134q0 276 283 276q85 0 164 -6v-215q-37 6 -82 6q-78 0 -78 -86v-109h348v134q0 276 283 276q84 0 164 -6v-215q-38 6 -82 6q-78 0 -78 -86v-109h170v-190h-170v-893h-287v893h-348v-893h-287v893h-155zM1454 0v1493h287v-1493h-287z" />
<glyph unicode=" "  horiz-adv-x="569" />
<glyph unicode="&#x09;" horiz-adv-x="569" />
<glyph unicode="&#xa0;" horiz-adv-x="569" />
<glyph unicode="!" horiz-adv-x="681" d="M188 0v299h308v-299h-308zM188 1057v430h308v-430l-86 -633h-138z" />
<glyph unicode="&#x22;" horiz-adv-x="970" d="M102 1227v266h283v-266l-86 -264h-115zM586 1227v266h282v-266l-86 -264h-114z" />
<glyph unicode="#" d="M6 352v203h199l61 313h-203v203h244l70 356h215l-70 -356h211l70 356h215l-70 -356h185v-203h-224l-63 -313h205v-203h-244l-82 -418h-215l82 418h-211l-82 -418h-217l82 418h-158zM420 555h211l61 313h-211z" />
<glyph unicode="$" d="M45 406v18h268q9 -217 185 -248v436q-418 95 -418 437q0 172 110 278t308 125v111h139v-111q195 -11 308.5 -126t113.5 -306h-262q0 95 -41.5 155t-118.5 70v-411q238 -66 340 -166t102 -269q0 -115 -46.5 -209.5t-129.5 -148.5q-106 -67 -266 -84v-215h-139v215 q-91 9 -154.5 30.5t-122.5 63.5q-176 125 -176 355zM332 1057q0 -67 40 -111t126 -72v371q-166 -34 -166 -188zM637 176q172 43 172 199q0 151 -172 203v-402z" />
<glyph unicode="%" horiz-adv-x="1820" d="M45 1063q0 154 111 263.5t266 109.5q158 0 267.5 -109.5t109.5 -267.5q0 -151 -111.5 -260t-265.5 -109q-155 0 -266 109.5t-111 263.5zM248 1063q0 -71 51 -121.5t123 -50.5q71 0 122.5 50.5t51.5 119.5q0 72 -51 122t-123 50t-123 -50.5t-51 -119.5zM389 -41l811 1493 h217l-809 -1493h-219zM1014 348q0 154 111 263.5t266 109.5q158 0 267 -109.5t109 -269.5q0 -151 -111 -260t-265 -109q-155 0 -266 110t-111 265zM1217 346q0 -71 51 -121.5t123 -50.5q71 0 122.5 50.5t51.5 119.5q0 72 -51 123t-123 51t-123 -50.5t-51 -121.5z" />
<glyph unicode="&#x26;" horiz-adv-x="1478" d="M113 395q0 145 70.5 238.5t250.5 187.5q-21 28 -24 31l-58 70q-89 106 -86 217q0 145 111.5 243.5t275.5 98.5t264.5 -87.5t100.5 -230.5q0 -110 -52 -188t-188 -172l238 -295q34 65 47.5 117t13.5 118v21h232v-33q0 -114 -40 -228.5t-100 -187.5l252 -315h-329l-95 115 q-124 -93 -209 -127.5t-190 -34.5q-218 0 -351.5 121.5t-133.5 320.5zM385 430q0 -92 67 -166t150 -74q99 0 246 113l-279 350l-96 -59q-42 -26 -65 -70t-23 -94zM537 1159q0 -38 17.5 -68t94.5 -128q123 67 123 176q0 57 -30.5 87.5t-86.5 30.5q-52 0 -85 -27.5t-33 -70.5z " />
<glyph unicode="'" horiz-adv-x="487" d="M102 1227v266h283v-266l-86 -264h-115z" />
<glyph unicode="(" horiz-adv-x="681" d="M82 543q0 236 79 460.5t255 489.5h205q-163 -313 -225 -519t-62 -431t62 -430.5t225 -522.5h-205q-176 265 -255 490.5t-79 462.5z" />
<glyph unicode=")" horiz-adv-x="681" d="M45 -410q162 313 224.5 519.5t62.5 431.5t-62 430t-225 522h205q176 -265 255 -490t79 -462q0 -236 -79 -461.5t-255 -489.5h-205z" />
<glyph unicode="*" horiz-adv-x="796" d="M47 1188l45 141l223 -74v238h148v-238l223 74l45 -143l-223 -72l137 -192l-119 -88l-137 192l-137 -192l-119 88l137 192z" />
<glyph unicode="+" horiz-adv-x="1196" d="M123 410v204h373v373h204v-373h373v-204h-373v-373h-204v373h-373z" />
<glyph unicode="," horiz-adv-x="569" d="M131 0v299h307v-281q0 -120 -24 -186t-86 -113q-78 -61 -197 -75v114q91 19 133.5 75.5t42.5 160.5v6h-176z" />
<glyph unicode="-" horiz-adv-x="681" d="M53 424v276h557v-276h-557z" />
<glyph unicode="." horiz-adv-x="569" d="M131 0v299h307v-299h-307z" />
<glyph unicode="/" horiz-adv-x="569" d="M-25 -29l422 1491h199l-422 -1491h-199z" />
<glyph unicode="0" d="M59 731q0 95 6 174t20.5 157.5t39 140t63 115.5t90 89.5t123 55.5t158.5 20q89 0 161.5 -21t124 -57t90 -91.5t62 -117.5t38 -142.5t19.5 -158t5 -172.5q0 -168 -24 -296.5t-66.5 -212t-106.5 -136.5t-137.5 -74.5t-165.5 -21.5q-88 0 -159.5 20.5t-123 56.5t-90.5 90.5 t-63 116t-38.5 140t-20 155.5t-5.5 170zM346 733q0 -160 12 -261t40.5 -154.5t65 -72t95.5 -18.5q81 0 125 40.5t66 149.5t22 312q0 167 -12.5 271.5t-41.5 159t-65 73t-94 18.5q-81 0 -125 -41.5t-66 -154t-22 -322.5z" />
<glyph unicode="1" d="M139 1001v191q377 0 445 260h190v-1452h-287v1001h-348z" />
<glyph unicode="2" d="M61 0q7 137 39.5 230.5t102 171t194.5 163.5q126 90 193.5 144t110.5 106.5t55 95t12 105.5q0 109 -55 171t-150 62q-98 0 -152.5 -67t-54.5 -189v-47h-274q-2 23 -2 51q0 230 125.5 358t351.5 128q228 0 363 -125t135 -336q0 -148 -68.5 -251t-257.5 -241 q-162 -118 -215 -167t-80 -107h615v-256h-988z" />
<glyph unicode="3" d="M59 455h279q0 -111 57 -169.5t160 -58.5q94 0 154.5 62t60.5 157q0 115 -80.5 166.5t-245.5 51.5v192h25q129 0 191.5 49t62.5 156q0 91 -47 140.5t-133 49.5q-106 0 -152.5 -60.5t-46.5 -195.5h-266v25q0 229 126.5 346t344.5 117q211 0 336 -107.5t125 -288.5 q0 -98 -44 -164t-147 -130q125 -61 181.5 -141.5t56.5 -205.5q0 -212 -138 -338t-370 -126q-224 0 -357 128t-133 345z" />
<glyph unicode="4" d="M49 322v241l531 889h338v-893h151v-237h-151v-322h-287v322h-582zM252 559h379v621z" />
<glyph unicode="5" d="M55 408h283q0 -87 53 -134t148 -47q109 0 171 67t62 193q0 130 -61.5 198.5t-171.5 68.5q-137 0 -185 -111h-258l129 809h776v-256h-600l-47 -303q63 47 121.5 67.5t130.5 20.5q202 0 327.5 -133t125.5 -354q0 -233 -144.5 -372.5t-379.5 -139.5q-213 0 -346.5 118 t-133.5 308z" />
<glyph unicode="6" d="M66 690q0 391 136.5 592t399.5 201q181 0 295 -92t141 -269h-266q-28 69 -68.5 99t-109.5 30q-129 0 -181 -97.5t-61 -326.5q67 70 133 99.5t156 29.5q189 0 305.5 -124t116.5 -332q0 -235 -133.5 -376.5t-351.5 -141.5q-133 0 -240 50.5t-168 149.5q-56 88 -80 205 t-24 303zM348 475q0 -114 61 -181t160 -67q97 0 159.5 69.5t62.5 184.5q0 118 -59.5 184t-160.5 66t-162 -68.5t-61 -187.5z" />
<glyph unicode="7" d="M59 1196v256h1022v-225q-258 -312 -379 -597.5t-141 -629.5h-289q27 226 71 387t120 324q45 97 149.5 256t169.5 229h-723z" />
<glyph unicode="8" d="M45 432q0 127 55 209t183 150q-99 53 -144 122.5t-45 173.5q0 172 132 284t335 112q201 0 333 -111.5t132 -281.5q0 -106 -45 -176t-143 -123q128 -68 182.5 -149.5t54.5 -209.5q0 -204 -142.5 -327t-371.5 -123q-230 0 -373 123t-143 327zM332 449q0 -106 60.5 -164 t166.5 -58t167.5 57t61.5 160q0 112 -61 172t-168 60q-105 0 -166 -59.5t-61 -167.5zM346 1063q0 -85 61 -139t156 -54q94 0 154.5 54t60.5 137q-2 85 -60.5 137.5t-154.5 52.5q-97 0 -157 -52.5t-60 -135.5z" />
<glyph unicode="9" d="M57 987q0 226 135 361t355 135q91 0 167 -23t140.5 -75.5t109 -132t69 -197.5t24.5 -267q0 -392 -133 -599t-402 -207q-187 0 -313 110t-131 277h276q4 -64 52.5 -103t123.5 -39q240 0 240 414q-77 -87 -130 -115t-148 -28q-195 0 -315 133t-120 356zM330 991 q0 -123 56.5 -189.5t156.5 -66.5t160.5 67t60.5 185q0 126 -59.5 194t-165.5 68q-97 0 -153 -67t-56 -191z" />
<glyph unicode=":" horiz-adv-x="681" d="M188 0v299h308v-299h-308zM188 766v299h308v-299h-308z" />
<glyph unicode=";" horiz-adv-x="681" d="M188 0v299h308v-281q0 -120 -24.5 -186t-86.5 -113q-78 -61 -197 -75v114q91 19 134 75.5t43 160.5v6h-177zM188 766v299h308v-299h-308z" />
<glyph unicode="&#x3c;" horiz-adv-x="1196" d="M180 434v156l770 649v-266l-544 -461l544 -461v-266z" />
<glyph unicode="=" horiz-adv-x="1196" d="M123 223v205h950v-205h-950zM123 596v205h950v-205h-950z" />
<glyph unicode="&#x3e;" horiz-adv-x="1196" d="M180 51l545 461l-545 461v266l770 -649v-156l-770 -649v266z" />
<glyph unicode="?" horiz-adv-x="1251" d="M123 985q0 271 133 405t365 134q226 0 367.5 -131t141.5 -340q0 -129 -51.5 -213t-193.5 -185q-93 -65 -115 -103.5t-22 -139.5h-254v28q0 116 43.5 198.5t158.5 178.5q92 76 119 118t27 112q0 100 -61.5 167.5t-153.5 67.5q-98 0 -162 -77.5t-64 -196.5v-19v-4h-278z M473 0v299h307v-299h-307z" />
<glyph unicode="@" horiz-adv-x="1996" d="M84 528q0 197 81 380t216.5 316.5t321.5 213.5t387 80q176 0 338 -61.5t279 -164.5t187 -245t70 -297q0 -115 -43 -231t-116.5 -209t-181.5 -151.5t-228 -58.5q-182 0 -232 125q-123 -114 -268 -114q-151 0 -252.5 112.5t-101.5 280.5q0 150 65.5 283t181 214.5 t252.5 81.5q152 0 238 -127l27 86h227l-152 -596q-20 -61 -20 -90q0 -24 21 -40.5t49 -16.5q76 0 146.5 61.5t113.5 160.5t43 204q0 117 -54 224.5t-144.5 186t-214.5 125t-257 46.5q-148 0 -287 -61t-240.5 -162t-163 -239.5t-61.5 -285.5q0 -135 55.5 -254t151.5 -204 t228.5 -134t281.5 -49q151 0 404 66l73 -185q-248 -94 -487 -94q-192 0 -365 65t-297.5 175t-198 262.5t-73.5 320.5zM760 502q0 -86 48.5 -145.5t117.5 -59.5q76 0 135 65t89.5 162.5t35.5 212.5v11q0 64 -45 106.5t-111 42.5q-113 0 -191.5 -119t-78.5 -276z" />
<glyph unicode="A" horiz-adv-x="1478" d="M53 0l531 1493h340l516 -1493h-316l-98 301h-559l-100 -301h-314zM553 557h389l-194 584z" />
<glyph unicode="B" horiz-adv-x="1478" d="M168 0v1493h666q113 0 206.5 -31.5t154 -86t93.5 -125t33 -150.5q0 -95 -47.5 -165.5t-157.5 -141.5q248 -145 248 -363q0 -192 -135.5 -311t-388.5 -119h-672zM475 256h367q112 0 169.5 49.5t57.5 143.5q0 95 -57.5 144.5t-169.5 49.5h-367v-387zM475 899h334 q106 0 161.5 43t55.5 125q0 83 -55.5 126.5t-161.5 43.5h-334v-338z" />
<glyph unicode="C" horiz-adv-x="1478" d="M90 745q0 361 183.5 567t500.5 206q260 0 431.5 -140t191.5 -391h-293q-33 141 -112.5 204.5t-207.5 63.5q-183 0 -285 -134t-102 -380q0 -244 99 -376t278 -132q146 0 231.5 69t98.5 208h299q-9 -169 -90.5 -290t-221 -183t-325.5 -62q-313 0 -494.5 206t-181.5 564z " />
<glyph unicode="D" horiz-adv-x="1478" d="M158 0v1493h583q172 0 284 -40.5t187 -131.5q89 -105 136 -253t47 -320q0 -173 -47.5 -321t-135.5 -253q-77 -91 -189 -132.5t-282 -41.5h-583zM465 256h276q346 0 346 489q0 492 -346 492h-276v-981z" />
<glyph unicode="E" horiz-adv-x="1366" d="M162 0v1493h1079v-256h-772v-338h715v-256h-715v-387h809v-256h-1116z" />
<glyph unicode="F" horiz-adv-x="1251" d="M152 0v1493h1048v-256h-741v-338h653v-256h-653v-643h-307z" />
<glyph unicode="G" horiz-adv-x="1593" d="M86 748q0 347 199.5 558.5t523.5 211.5q270 0 444.5 -136t202.5 -366h-289q-81 239 -356 239q-196 0 -307 -131.5t-111 -371.5q0 -229 119.5 -371.5t306.5 -142.5q141 0 252.5 86.5t126.5 222.5h-340v256h598v-803h-184l-37 205q-87 -119 -194 -174.5t-257 -55.5 q-199 0 -358.5 98t-249.5 275t-90 400z" />
<glyph unicode="H" horiz-adv-x="1478" d="M139 0v1493h307v-559h592v559h308v-1493h-308v678h-592v-678h-307z" />
<glyph unicode="I" horiz-adv-x="569" d="M129 0v1493h307v-1493h-307z" />
<glyph unicode="J" d="M49 428v125h307v-121q0 -103 39 -148.5t127 -45.5q80 0 123 45t43 129v1081h307v-1081q0 -209 -125 -323t-354 -114q-214 0 -340.5 117.5t-126.5 335.5z" />
<glyph unicode="K" horiz-adv-x="1478" d="M152 0v1493h307v-655l583 655h363l-596 -643l659 -850h-366l-490 659l-153 -159v-500h-307z" />
<glyph unicode="L" horiz-adv-x="1251" d="M164 0v1493h307v-1237h715v-256h-1022z" />
<glyph unicode="M" horiz-adv-x="1705" d="M135 0v1493h459l270 -1188l262 1188h463v-1493h-307v1163l-264 -1163h-307l-269 1163v-1163h-307z" />
<glyph unicode="N" horiz-adv-x="1478" d="M139 0v1493h316l592 -1016v1016h307v-1493h-307l-601 1032v-1032h-307z" />
<glyph unicode="O" horiz-adv-x="1593" d="M82 748q0 128 32 244.5t94.5 212t148.5 165.5t199.5 109t242.5 39q214 0 379 -101t253.5 -278.5t88.5 -401.5q0 -217 -88.5 -390t-253 -272.5t-377.5 -99.5q-215 0 -379.5 100t-252 275.5t-87.5 397.5zM389 748q0 -234 112.5 -372t299.5 -138q185 0 298 136.5t113 364.5 q0 234 -111.5 375t-299.5 141q-185 0 -298.5 -140.5t-113.5 -366.5z" />
<glyph unicode="P" horiz-adv-x="1366" d="M156 0v1493h659q233 0 357 -119.5t124 -343.5q0 -227 -122.5 -362.5t-327.5 -135.5h-383v-532h-307zM463 788h287q123 0 181 55t58 169q0 116 -58 170.5t-181 54.5h-287v-449z" />
<glyph unicode="Q" horiz-adv-x="1593" d="M88 748q0 223 88 398t252.5 273.5t378.5 98.5t378.5 -99.5t252.5 -273.5t88 -393q0 -149 -44 -287.5t-120 -231.5l164 -155l-156 -166l-176 166q-90 -54 -181 -78.5t-206 -24.5q-213 0 -377.5 99.5t-253 275t-88.5 398.5zM395 748q0 -234 112 -372t298 -138q109 0 180 38 l-158 150l156 166l168 -160q68 136 68 313q0 230 -112.5 370t-299.5 140t-299.5 -137t-112.5 -370z" />
<glyph unicode="R" horiz-adv-x="1478" d="M164 0v1493h801q192 0 296.5 -111.5t104.5 -291.5q0 -270 -252 -369q41 -18 63.5 -28.5t47.5 -30t36.5 -33t24 -46.5t17 -60.5t9.5 -86t6 -111.5t3 -147q0 -49 14.5 -75.5t50.5 -47.5v-55h-329q-29 54 -38 102.5t-9 153.5l4 158q0 94 -45.5 136t-145.5 42h-352v-592h-307 zM471 848h371q125 0 171 47t46 152q0 100 -47.5 145t-169.5 45h-371v-389z" />
<glyph unicode="S" horiz-adv-x="1366" d="M66 469h299q0 -119 88.5 -183.5t246.5 -64.5q142 0 221.5 49.5t79.5 141.5q0 88 -60.5 130t-219.5 74l-209 41q-228 44 -324 136t-96 266q0 218 148 338.5t417 120.5q277 0 431.5 -123.5t154.5 -356.5h-287q0 113 -82.5 173.5t-230.5 60.5q-118 0 -188 -50t-70 -135 q0 -81 59 -121.5t224 -72.5l233 -45q209 -40 302 -132t93 -267q0 -226 -161 -350t-451 -124q-289 0 -453.5 128.5t-164.5 365.5z" />
<glyph unicode="T" horiz-adv-x="1251" d="M29 1237v256h1196v-256h-437v-1237h-307v1237h-452z" />
<glyph unicode="U" horiz-adv-x="1478" d="M156 504v989h307v-989q0 -135 70 -200.5t215 -65.5t214.5 65.5t69.5 200.5v989h307v-989q0 -171 -77 -292t-208.5 -179t-305.5 -58q-129 0 -237 33.5t-187.5 98.5t-123.5 166.5t-44 230.5z" />
<glyph unicode="V" horiz-adv-x="1366" d="M49 1493h309l332 -1124l326 1124h309l-512 -1493h-260z" />
<glyph unicode="W" horiz-adv-x="1933" d="M27 1493h325l232 -1118l231 1118h303l242 -1120l223 1120h326l-414 -1493h-276l-250 1165l-244 -1165h-276z" />
<glyph unicode="X" horiz-adv-x="1366" d="M45 0l471 752l-455 741h365l262 -492l275 492h356l-461 -731l479 -762h-364l-287 518l-285 -518h-356z" />
<glyph unicode="Y" horiz-adv-x="1366" d="M55 1493h342l305 -659l285 659h344l-473 -940v-553h-307v553z" />
<glyph unicode="Z" horiz-adv-x="1251" d="M61 0v256l764 981h-764v256h1123v-256l-762 -981h762v-256h-1123z" />
<glyph unicode="[" horiz-adv-x="681" d="M135 -410v1903h496v-209h-230v-1485h230v-209h-496z" />
<glyph unicode="\" horiz-adv-x="569" d="M-53 1462h198l480 -1491h-199z" />
<glyph unicode="]" horiz-adv-x="681" d="M37 -201h229v1485h-229v209h495v-1903h-495v209z" />
<glyph unicode="^" horiz-adv-x="1196" d="M125 553l338 870h256l350 -870h-231l-248 614l-236 -614h-229z" />
<glyph unicode="_" d="M-45 -246h1229v-141h-1229v141z" />
<glyph unicode="`" horiz-adv-x="681" d="M-20 1540h319l143 -315h-204z" />
<glyph unicode="a" d="M57 299q0 148 79 226t247 108l115 20q25 4 65.5 10t58.5 9t43 11t35.5 19.5t18.5 31t8 48.5q0 111 -166 111q-105 0 -148.5 -33t-54.5 -119h-276q27 383 473 383q224 0 338.5 -85.5t114.5 -254.5v-614q0 -43 13.5 -71.5t51.5 -63.5v-35h-311q-33 40 -33 139 q-151 -157 -336 -157q-146 0 -241 81.5t-95 235.5zM344 332q0 -119 156 -119q109 0 168 67.5t59 192.5v49q-27 -13 -47 -19t-74 -16l-98 -18q-92 -18 -128 -46.5t-36 -90.5z" />
<glyph unicode="b" horiz-adv-x="1251" d="M121 0v1493h287v-530q102 161 305 161q141 0 248.5 -81.5t162 -213.5t54.5 -290q0 -247 -132 -402t-333 -155q-197 0 -305 145v-127h-287zM408 557q0 -157 65.5 -246.5t175.5 -89.5q107 0 174.5 90.5t67.5 239.5q0 152 -67.5 243t-174.5 91q-108 0 -174.5 -89t-66.5 -239 z" />
<glyph unicode="c" d="M70 545q0 281 136.5 430t385.5 149q207 0 334.5 -115t142.5 -317h-274q-25 109 -71.5 155t-133.5 46q-127 0 -180.5 -91.5t-53.5 -256.5q0 -160 62 -246t172 -86q81 0 129 41t76 129h274q-20 -179 -151 -290t-330 -111q-247 0 -382.5 145.5t-135.5 417.5z" />
<glyph unicode="d" horiz-adv-x="1251" d="M59 551q0 249 133 411t332 162q201 0 305 -161v530h287v-1493h-287v127q-111 -145 -305 -145q-142 0 -249.5 77.5t-161.5 205.5t-54 286zM346 551q0 -151 67 -240.5t175 -89.5t174.5 88.5t66.5 237.5q0 157 -65.5 247.5t-175.5 90.5q-108 0 -175 -91t-67 -243z" />
<glyph unicode="e" d="M45 539q0 277 136.5 431t375.5 154q244 0 381 -162.5t137 -449.5l-2 -35h-741q6 -153 63.5 -214.5t165.5 -61.5q185 0 219 110h283q-46 -159 -183.5 -244t-328.5 -85q-236 0 -371 146.5t-135 410.5zM336 668h440q-10 116 -69.5 176.5t-153.5 60.5q-189 0 -217 -237z" />
<glyph unicode="f" horiz-adv-x="681" d="M29 893v190h155v134q0 276 283 276q85 0 164 -6v-215q-37 6 -82 6q-78 0 -78 -86v-109h170v-190h-170v-893h-287v893h-155z" />
<glyph unicode="g" horiz-adv-x="1251" d="M70 541q0 255 130 419t328 164q96 0 170 -45t138 -143v170h272v-1143q0 -195 -137.5 -302t-388.5 -107q-223 0 -355 87.5t-135 225.5h297q35 -129 203 -129q107 0 175.5 62.5t68.5 162.5v164q-80 -80 -149 -112.5t-165 -32.5q-205 0 -328.5 151t-123.5 408zM356 545 q0 -149 63.5 -236.5t166.5 -87.5q114 0 184 87.5t70 236.5q0 152 -70.5 246t-179.5 94q-105 0 -169.5 -92.5t-64.5 -247.5z" />
<glyph unicode="h" horiz-adv-x="1251" d="M137 0v1493h287v-547q118 178 324 178q163 0 261.5 -98t98.5 -285v-741h-287v676q0 205 -176 205q-97 0 -159 -61t-62 -156v-664h-287z" />
<glyph unicode="i" horiz-adv-x="569" d="M137 0v1106h287v-1106h-287zM141 1239v287h287v-287h-287z" />
<glyph unicode="j" horiz-adv-x="569" d="M8 -207q27 -8 51 -8q46 0 65 19.5t19 66.5v1235h287v-1299q0 -135 -59 -194t-193 -59q-75 0 -170 10v229zM143 1239v287h287v-287h-287z" />
<glyph unicode="k" d="M121 0v1493h287v-817l362 430h326l-377 -418l403 -688h-336l-264 487l-114 -125v-362h-287z" />
<glyph unicode="l" horiz-adv-x="569" d="M137 0v1493h287v-1493h-287z" />
<glyph unicode="m" horiz-adv-x="1820" d="M123 0v1106h285v-137q71 85 139.5 120t163.5 35q103 0 182 -42.5t119 -120.5q64 86 141 124.5t182 38.5q166 0 259.5 -90.5t93.5 -251.5v-782h-287v737q0 66 -42 105t-114 39q-92 0 -144 -58t-52 -159v-664h-287v737q0 66 -42 105t-114 39q-92 0 -144 -58t-52 -159v-664 h-287z" />
<glyph unicode="n" horiz-adv-x="1251" d="M129 0v1106h287v-160q62 93 141 135.5t191 42.5q177 0 273.5 -100t96.5 -283v-741h-287v682q0 199 -184 199q-104 0 -167.5 -59.5t-63.5 -157.5v-664h-287z" />
<glyph unicode="o" horiz-adv-x="1251" d="M72 553q0 270 144.5 420.5t399.5 150.5q261 0 405 -150t144 -429q0 -264 -147 -413.5t-400 -149.5q-257 0 -401.5 149.5t-144.5 421.5zM358 553q0 -157 71 -248.5t189 -91.5q117 0 189 91t72 245q0 161 -70.5 252.5t-190.5 91.5q-118 0 -189 -91.5t-71 -248.5z" />
<glyph unicode="p" horiz-adv-x="1251" d="M119 -446v1552h287v-164q104 182 307 182q141 0 247 -74.5t161 -203.5t55 -293q0 -251 -131 -411t-332 -160q-108 0 -182 38t-125 127v-593h-287zM406 553q0 -153 66 -242.5t175 -89.5q107 0 174.5 89.5t67.5 238.5q0 157 -66 246.5t-176 89.5q-109 0 -175 -89.5 t-66 -242.5z" />
<glyph unicode="q" horiz-adv-x="1251" d="M57 553q0 252 131 411.5t332 159.5q205 0 307 -182v164h287v-1552h-287v593q-49 -88 -125 -126.5t-184 -38.5q-210 0 -335.5 159.5t-125.5 411.5zM344 553q0 -153 66.5 -242.5t175.5 -89.5q108 0 174.5 88.5t66.5 237.5q0 159 -65.5 248.5t-175.5 89.5 q-109 0 -175.5 -89.5t-66.5 -242.5z" />
<glyph unicode="r" horiz-adv-x="796" d="M129 0v1106h287v-217q45 112 126.5 173.5t180.5 61.5q19 0 35 -2v-291q-58 9 -90 9q-252 0 -252 -252v-588h-287z" />
<glyph unicode="s" d="M59 350h281q18 -85 69 -114t156 -29q213 0 213 94q0 24 -21.5 41.5t-74.5 34.5l-342 106q-76 23 -124 49.5t-74 61t-35 71.5t-9 91q0 170 122 269t333 99q223 0 350.5 -99.5t130.5 -274.5h-276q-3 149 -207 149q-75 0 -120.5 -28t-45.5 -74q0 -34 20 -51.5t80 -34.5 l363 -105q107 -32 162 -100t55 -164v-14q0 -167 -125 -256.5t-358 -89.5q-252 0 -384.5 93t-138.5 275z" />
<glyph unicode="t" horiz-adv-x="681" d="M29 893v190h141v297h287v-297h159v-190h-159v-578q0 -73 18.5 -96.5t75.5 -23.5q21 0 65 6v-201q-12 0 -70 -4t-95 -4q-143 0 -212 58.5t-69 187.5v655h-141z" />
<glyph unicode="u" horiz-adv-x="1251" d="M119 365v741h287v-682q0 -199 184 -199q104 0 167.5 59.5t63.5 157.5v664h287v-1106h-287v145q-63 -83 -142 -123t-190 -40q-177 0 -273.5 100t-96.5 283z" />
<glyph unicode="v" d="M29 1106h303l239 -809l224 809h303l-381 -1106h-301z" />
<glyph unicode="w" horiz-adv-x="1593" d="M10 1106h297l176 -774l168 774h287l166 -774l168 774h297l-314 -1106h-297l-165 780l-177 -780h-294z" />
<glyph unicode="x" d="M33 0l368 557l-360 549h344l180 -334l178 334h344l-360 -549l369 -557h-344l-187 344l-188 -344h-344z" />
<glyph unicode="y" d="M18 1106h316l244 -805l229 805h295l-455 -1309q-28 -78 -61.5 -127t-80 -75t-97.5 -35t-129 -9q-39 0 -103 9v215q48 -13 76 -13q75 0 126.5 53.5t51.5 131.5v6z" />
<glyph unicode="z" horiz-adv-x="1024" d="M43 0v231l547 643h-510v232h860v-232l-543 -643h561v-231h-915z" />
<glyph unicode="{" horiz-adv-x="796" d="M76 457v188h33q133 0 133 129v432q0 126 71 206.5t181 80.5h155v-203h-76q-48 0 -70 -27.5t-22 -88.5v-400q0 -113 -41.5 -159.5t-156.5 -63.5q115 -19 156.5 -66t41.5 -159v-400q0 -75 20 -104t72 -29h76v-203h-155q-110 0 -181 80.5t-71 206.5v430q0 87 -31 117.5 t-127 30.5z" />
<glyph unicode="|" horiz-adv-x="573" d="M184 -410v1903h205v-1903h-205z" />
<glyph unicode="}" horiz-adv-x="796" d="M147 -207h76q48 0 70 28t22 89v399q0 112 41.5 159t157.5 64q-116 19 -157.5 66.5t-41.5 159.5v399q0 75 -20 104t-72 29h-76v203h156q110 0 181 -80.5t71 -206.5v-430q0 -87 31 -117t127 -30l8 -2v-189h-8h-25q-69 -2 -101 -32.5t-32 -96.5v-432q0 -126 -71 -206.5 t-181 -80.5h-156v203z" />
<glyph unicode="~" horiz-adv-x="1196" d="M123 346q15 297 260 297q99 0 170 -51l117 -86q40 -29 66.5 -40t58.5 -11q58 0 81.5 27.5t26.5 107.5h160q-9 -151 -73 -225t-187 -74q-101 0 -170 53l-117 86q-66 49 -125 49q-57 0 -81 -28t-27 -105h-160z" />
<glyph unicode="&#xa1;" horiz-adv-x="681" d="M188 49l86 633h138l84 -633v-430h-308v430zM188 807v299h308v-299h-308z" />
<glyph unicode="&#xa2;" d="M74 530q0 264 117 416.5t339 175.5v176h91v-174q189 -3 312.5 -122t135.5 -310h-274q-20 95 -61 141.5t-113 57.5v-705q70 10 110.5 56.5t63.5 140.5h274q-17 -185 -141 -304t-307 -126v-207h-91v209q-214 13 -335 166.5t-121 408.5zM360 532q0 -288 170 -339v694 q-83 -22 -126.5 -112.5t-43.5 -242.5z" />
<glyph unicode="&#xa3;" d="M63 164q129 88 177.5 154t48.5 155q0 70 -43 174h-183v113h123q-69 121 -88.5 175t-19.5 122q0 173 134 290t353 117q238 0 360 -114t144 -359h-270l-2 23q-16 122 -75.5 172.5t-154.5 50.5q-88 0 -144 -52t-56 -134q0 -31 9 -57t46 -101q47 -96 61 -133h285v-113h-250 q31 -66 31 -121q0 -89 -53.5 -168t-184.5 -182q98 47 142 61.5t88 14.5q5 0 111 -21.5t149 -21.5q97 0 215 59l84 -223q-85 -50 -153 -71t-144 -21q-35 0 -201.5 32.5t-202.5 32.5q-58 0 -106.5 -13.5t-116.5 -47.5z" />
<glyph unicode="&#xa4;" d="M-6 291l201 201q-64 103 -64 239q0 65 18 129t46 107l-201 200l135 136l201 -201q108 67 239 67q139 0 240 -67l201 201l135 -136l-201 -200q68 -103 68 -236q0 -136 -68 -239l201 -201l-135 -135l-201 200q-101 -67 -240 -67q-131 0 -239 67l-201 -200zM360 731 q0 -99 58 -165t151 -66q94 0 153.5 66.5t59.5 164.5t-59.5 162.5t-153.5 64.5t-151.5 -64.5t-57.5 -162.5z" />
<glyph unicode="&#xa5;" d="M10 1442h285l285 -520l274 520h276l-393 -723h281v-121h-291v-109h291v-120h-291v-369h-287v369h-297v120h297v109h-297v121h283z" />
<glyph unicode="&#xa6;" horiz-adv-x="573" d="M184 352h205v-762h-205v762zM184 731v762h205v-762h-205z" />
<glyph unicode="&#xa7;" d="M68 575q0 92 39.5 155.5t148.5 146.5q-75 75 -100 124t-25 127q0 154 121 253.5t307 99.5q395 0 410 -367h-260q-10 82 -49 120t-111 38q-59 0 -95 -29t-36 -76q0 -43 37.5 -78.5t146.5 -95.5l260 -143q199 -112 199 -313q0 -103 -45 -169.5t-148 -113.5 q144 -102 144 -274q0 -175 -124 -283.5t-323 -108.5q-213 0 -321.5 104t-110.5 308h268v-20q6 -93 48 -128.5t118 -35.5q69 0 112.5 35t43.5 90q0 30 -2 43t-17 32t-42 36.5t-82 47.5l-351 205q-78 46 -119.5 115.5t-41.5 154.5zM311 649q0 -47 23.5 -78t85.5 -65l301 -164 q52 36 73 66.5t21 66.5q0 49 -26.5 81.5t-98.5 70.5l-293 155q-46 -28 -66 -58.5t-20 -74.5z" />
<glyph unicode="&#xa8;" horiz-adv-x="681" d="M12 1266v235h258v-235h-258zM412 1266v235h258v-235h-258z" />
<glyph unicode="&#xa9;" horiz-adv-x="1509" d="M43 696q0 145 56.5 277t152 228t227.5 153t277 57q193 0 357.5 -96t260.5 -261t96 -358t-96 -357t-260.5 -259.5t-357.5 -95.5t-357.5 95.5t-260 259.5t-95.5 357zM164 696q0 -161 79 -297.5t215.5 -215.5t297.5 -79t298 79t216.5 215.5t79.5 297.5t-79.5 298 t-216.5 216.5t-298 79.5t-297.5 -79.5t-215.5 -216.5t-79 -298zM369 694q0 193 108 302.5t293 109.5q158 0 260.5 -80t108.5 -223h-195q-17 72 -58 104.5t-110 32.5q-95 0 -148 -65t-53 -183q0 -117 51 -180t144 -63q166 0 172 141h201q-3 -144 -104.5 -224.5t-272.5 -80.5 q-184 0 -290.5 109t-106.5 300z" />
<glyph unicode="&#xaa;" horiz-adv-x="757" d="M63 991q0 90 47.5 141t147.5 70l70 12q67 12 96 23t35 20.5t6 32.5q0 64 -100 64q-61 0 -88 -20t-33 -70h-160q3 229 276 229t273 -205v-366q0 -27 8.5 -44t32.5 -38v-21h-189q-11 14 -14.5 26.5t-5.5 39.5q-88 -94 -201 -94q-91 0 -146 54.5t-55 145.5zM76 537v159h581 v-159h-581zM236 1010q0 -37 25 -58.5t69 -21.5q64 0 99.5 40.5t35.5 114.5v48q-19 -12 -72 -21l-59 -12q-54 -10 -76 -31t-22 -59z" />
<glyph unicode="&#xab;" d="M180 446v234l342 305v-240l-207 -182l207 -182v-234zM616 446v234l342 305v-240l-206 -182l206 -182v-234z" />
<glyph unicode="&#xac;" horiz-adv-x="1196" d="M123 596v205h950v-475h-205v270h-745z" />
<glyph unicode="&#xad;" horiz-adv-x="681" d="M53 424v276h557v-276h-557z" />
<glyph unicode="&#xae;" horiz-adv-x="1509" d="M43 696q0 145 56.5 277t152 228t227.5 153t277 57q193 0 357.5 -96t260.5 -261t96 -358t-96 -357t-260.5 -259.5t-357.5 -95.5t-357.5 95.5t-260 259.5t-95.5 357zM164 696q0 -161 79 -297.5t215.5 -215.5t297.5 -79t298 79t216.5 215.5t79.5 297.5t-79.5 298 t-216.5 216.5t-298 79.5t-297.5 -79.5t-215.5 -216.5t-79 -298zM395 297v797h467q116 0 179 -62.5t63 -161.5q0 -130 -115 -188q18 -8 30 -16t22 -17.5t16 -25.5t10 -33t6.5 -47.5t3.5 -61.5t2 -82q1 -19 9.5 -29t27.5 -18v-55h-211q-21 34 -28 61t-7 86q0 8 2 40.5t2 39.5 q0 41 -22 58.5t-70 17.5h-182v-303h-205zM600 764h193q61 0 83.5 20t22.5 66q0 43 -23 61.5t-83 18.5h-193v-166z" />
<glyph unicode="&#xaf;" horiz-adv-x="681" d="M33 1303v161h612v-161h-612z" />
<glyph unicode="&#xb0;" horiz-adv-x="819" d="M117 1165q0 121 85.5 207t207.5 86q121 0 206.5 -85.5t85.5 -207.5t-85.5 -207.5t-206.5 -85.5q-122 0 -207.5 86t-85.5 207zM231 1165q0 -73 52.5 -125.5t126.5 -52.5t126 52.5t52 125.5t-52 125.5t-126 52.5t-126.5 -52.5t-52.5 -125.5z" />
<glyph unicode="&#xb1;" horiz-adv-x="1196" d="M123 0v205h950v-205h-950zM123 614v205h373v373h204v-373h373v-205h-373v-225h-204v225h-373z" />
<glyph unicode="&#xb2;" horiz-adv-x="681" d="M57 688q3 109 42.5 172t146.5 133q131 86 167 127t36 101q0 55 -29 85.5t-82 30.5q-51 0 -79 -34t-28 -95l2 -28h-165q-2 14 -2 32q0 124 73.5 191t208.5 67q131 0 202 -62t71 -179q0 -81 -38 -133t-147 -131q-102 -71 -114 -82q-10 -10 -43 -49h337v-146h-559z" />
<glyph unicode="&#xb3;" horiz-adv-x="681" d="M61 922h166q5 -61 33 -90t84 -29q49 0 81 30.5t32 77.5q0 54 -39.5 83.5t-112.5 29.5h-29v113h21q135 0 135 104q0 44 -26.5 71t-69.5 27q-55 0 -79 -31.5t-24 -103.5h-159q6 140 73.5 203t194.5 63q118 0 189 -57.5t71 -152.5q0 -103 -94 -160q121 -59 121 -187 q0 -114 -78.5 -181.5t-208.5 -67.5q-133 0 -206 67.5t-75 190.5z" />
<glyph unicode="&#xb4;" horiz-adv-x="681" d="M240 1225l143 315h319l-258 -315h-204z" />
<glyph unicode="&#xb5;" horiz-adv-x="1251" d="M119 -451v1557h287v-684q0 -225 172 -225q91 0 148.5 61t57.5 156v692h287v-799q0 -89 12.5 -119t49.5 -30q14 0 41 8v-178q-66 -35 -144 -35q-72 0 -114.5 24t-79.5 86q-59 -61 -113 -85.5t-125 -24.5q-124 0 -205 78v-482h-274z" />
<glyph unicode="&#xb6;" d="M39 1014q0 127 54 236.5t152 176t218 66.5h620v-147h-88v-1737h-200v1737h-129v-1737h-201v938q-189 9 -307.5 139.5t-118.5 327.5z" />
<glyph unicode="&#xb7;" horiz-adv-x="569" d="M131 512q0 63 45.5 108.5t108.5 45.5t108 -45.5t45 -108.5t-45 -108.5t-108 -45.5t-108.5 45.5t-45.5 108.5z" />
<glyph unicode="&#xb8;" horiz-adv-x="681" d="M55 -412l39 125q82 -35 127 -48t88 -13q49 0 83 24.5t34 59.5q0 63 -104 63h-132l101 211h129l-55 -112h81q71 0 113.5 -44.5t42.5 -113.5q0 -94 -69.5 -151.5t-194.5 -57.5q-68 0 -125.5 11.5t-157.5 45.5z" />
<glyph unicode="&#xb9;" horiz-adv-x="681" d="M109 1206v111q209 0 249 135h115v-766h-172v520h-192z" />
<glyph unicode="&#xba;" horiz-adv-x="747" d="M47 1141q0 164 88 258t240 94q155 0 241 -93.5t86 -262.5q0 -160 -88 -253t-239 -93q-152 0 -240 93.5t-88 256.5zM68 537v159h616v-159h-616zM219 1143q0 -95 43.5 -154t112.5 -59t112 58.5t43 150.5q0 97 -42.5 156t-112.5 59q-69 0 -112.5 -58.5t-43.5 -152.5z" />
<glyph unicode="&#xbb;" d="M180 147v240l207 182l-207 183v233l342 -299v-235zM604 147v240l207 182l-207 183v233l342 -299v-235z" />
<glyph unicode="&#xbc;" horiz-adv-x="1708" d="M131 1206v111q209 0 250 135h115v-766h-172v520h-193zM328 -51l866 1515h178l-866 -1515h-178zM975 168v133l299 465h196v-463h82v-135h-82v-168h-172v168h-323zM1108 303h190v295z" />
<glyph unicode="&#xbd;" horiz-adv-x="1708" d="M131 1206v111q209 0 250 135h115v-766h-172v520h-193zM274 -51l867 1515h178l-866 -1515h-179zM1024 0q3 109 42 172t144 133q133 86 169 127t36 100q0 56 -29 86.5t-81 30.5q-51 0 -80 -34t-29 -95l4 -28h-166q-2 14 -2 32q0 124 74 191t209 67q131 0 200.5 -62 t69.5 -179q0 -82 -37 -135t-145 -127q-89 -63 -104 -75.5t-54 -58.5h338v-145h-559z" />
<glyph unicode="&#xbe;" horiz-adv-x="1708" d="M129 922h166q5 -61 33 -90t84 -29q49 0 80.5 30.5t31.5 77.5q0 54 -39 83.5t-112 29.5h-29v113h21q135 0 135 104q0 44 -27 71t-70 27q-55 0 -78.5 -31.5t-23.5 -103.5h-160q6 140 73.5 203t195.5 63q118 0 189 -57.5t71 -152.5q0 -102 -95 -160q121 -59 121 -187 q0 -114 -78.5 -181.5t-207.5 -67.5q-133 0 -206 67.5t-75 190.5zM393 -51l867 1515h178l-867 -1515h-178zM975 168v133l299 465h196v-463h82v-135h-82v-168h-172v168h-323zM1108 303h190v295z" />
<glyph unicode="&#xbf;" horiz-adv-x="1251" d="M123 53q0 129 52 213t194 185q93 65 115 103.5t22 139.5h254v-28q0 -116 -44 -198.5t-159 -178.5q-91 -75 -118 -117.5t-27 -112.5q0 -100 61.5 -167.5t153.5 -67.5q98 0 161.5 77.5t63.5 196.5v19v4h278q0 -271 -132.5 -405t-364.5 -134q-226 0 -368 131t-142 340z M473 807v299h307v-299h-307z" />
<glyph unicode="&#xc0;" horiz-adv-x="1478" d="M53 0l531 1493h340l516 -1493h-316l-98 301h-559l-100 -301h-314zM369 1886h338l155 -276h-217zM553 557h389l-194 584z" />
<glyph unicode="&#xc1;" horiz-adv-x="1478" d="M53 0l531 1493h340l516 -1493h-316l-98 301h-559l-100 -301h-314zM553 557h389l-194 584zM645 1610l156 276h338l-277 -276h-217z" />
<glyph unicode="&#xc2;" horiz-adv-x="1478" d="M53 0l531 1493h340l516 -1493h-316l-98 301h-559l-100 -301h-314zM362 1612l267 276h262l254 -276h-193l-200 143l-203 -143h-187zM553 557h389l-194 584z" />
<glyph unicode="&#xc3;" horiz-adv-x="1478" d="M53 0l531 1493h340l516 -1493h-316l-98 301h-559l-100 -301h-314zM395 1618q6 120 57 187t136 67q30 0 44.5 -3.5t69.5 -23.5l146 -51q28 -12 70 -12q64 0 73 98h129q-12 -260 -194 -260q-46 0 -113 25l-145 53q-38 12 -62 12q-37 0 -55.5 -21t-26.5 -71h-129zM553 557 h389l-194 584z" />
<glyph unicode="&#xc4;" horiz-adv-x="1478" d="M53 0l531 1493h340l516 -1493h-316l-98 301h-559l-100 -301h-314zM426 1632v236h258v-236h-258zM553 557h389l-194 584zM825 1632v236h258v-236h-258z" />
<glyph unicode="&#xc5;" horiz-adv-x="1478" d="M53 0l531 1493h340l516 -1493h-316l-98 301h-559l-100 -301h-314zM551 1767q0 85 60 144t147 59q85 0 142.5 -59.5t57.5 -145.5q0 -83 -60 -141.5t-142 -58.5q-86 0 -145.5 58.5t-59.5 143.5zM553 557h389l-194 584zM659 1767q0 -38 29 -66t70 -28q37 0 64.5 28t27.5 66 q0 39 -27 67t-65 28q-41 0 -70 -28t-29 -67z" />
<glyph unicode="&#xc6;" horiz-adv-x="2048" d="M2 0l539 1493h1396v-256h-749v-338h694v-256h-694v-387h790v-256h-1097v311h-457l-109 -311h-313zM510 567h371v670h-138z" />
<glyph unicode="&#xc7;" horiz-adv-x="1478" d="M90 745q0 361 183.5 567t500.5 206q260 0 431.5 -140t191.5 -391h-293q-33 141 -112.5 204.5t-207.5 63.5q-183 0 -285 -134t-102 -380q0 -244 99 -376t278 -132q146 0 231.5 69t98.5 208h299q-13 -243 -171 -382.5t-419 -150.5l-39 -79h82q71 0 113.5 -44.5t42.5 -113.5 q0 -94 -69.5 -151.5t-194.5 -57.5q-68 0 -125.5 11.5t-157.5 45.5l39 125q82 -35 127 -48t88 -13q49 0 83 24.5t34 59.5q0 63 -105 63h-131l86 181q-278 26 -437 228t-159 537z" />
<glyph unicode="&#xc8;" horiz-adv-x="1366" d="M162 0v1493h1079v-256h-772v-338h715v-256h-715v-387h809v-256h-1116zM317 1886h338l156 -276h-217z" />
<glyph unicode="&#xc9;" horiz-adv-x="1366" d="M162 0v1493h1079v-256h-772v-338h715v-256h-715v-387h809v-256h-1116zM594 1610l156 276h337l-276 -276h-217z" />
<glyph unicode="&#xca;" horiz-adv-x="1366" d="M162 0v1493h1079v-256h-772v-338h715v-256h-715v-387h809v-256h-1116zM311 1612l267 276h262l254 -276h-193l-201 143l-202 -143h-187z" />
<glyph unicode="&#xcb;" horiz-adv-x="1366" d="M162 0v1493h1079v-256h-772v-338h715v-256h-715v-387h809v-256h-1116zM375 1632v236h258v-236h-258zM774 1632v236h258v-236h-258z" />
<glyph unicode="&#xcc;" horiz-adv-x="569" d="M-57 1886h338l155 -276h-217zM129 0v1493h307v-1493h-307z" />
<glyph unicode="&#xcd;" horiz-adv-x="569" d="M129 0v1493h307v-1493h-307zM131 1610l156 276h338l-277 -276h-217z" />
<glyph unicode="&#xce;" horiz-adv-x="569" d="M-109 1612l267 276h262l254 -276h-193l-200 143l-203 -143h-187zM129 0v1493h307v-1493h-307z" />
<glyph unicode="&#xcf;" horiz-adv-x="569" d="M-45 1632v236h258v-236h-258zM129 0v1493h307v-1493h-307zM354 1632v236h258v-236h-258z" />
<glyph unicode="&#xd0;" horiz-adv-x="1478" d="M0 694v164h158v635h583q175 0 287.5 -40.5t185.5 -131.5q85 -104 133 -257t48 -316q0 -165 -48 -316.5t-133 -257.5q-73 -92 -185.5 -133t-287.5 -41h-583v694h-158zM465 256h276q102 0 174 35.5t111.5 103.5t56.5 152.5t17 197.5q0 114 -17 199.5t-56.5 153.5 t-111 103.5t-174.5 35.5h-276v-379h307v-164h-307v-438z" />
<glyph unicode="&#xd1;" horiz-adv-x="1478" d="M139 0v1493h316l592 -1016v1016h307v-1493h-307l-601 1032v-1032h-307zM381 1618q6 120 56.5 187t135.5 67q30 0 45 -3.5t70 -23.5l146 -51q28 -12 69 -12q65 0 74 98h129q-12 -260 -195 -260q-45 0 -112 25l-146 53q-37 12 -61 12q-37 0 -55.5 -21t-26.5 -71h-129z" />
<glyph unicode="&#xd2;" horiz-adv-x="1593" d="M82 748q0 128 32 244.5t94.5 212t148.5 165.5t199.5 109t242.5 39q214 0 379 -101t253.5 -278.5t88.5 -401.5q0 -217 -88.5 -390t-253 -272.5t-377.5 -99.5q-215 0 -379.5 100t-252 275.5t-87.5 397.5zM389 748q0 -234 112.5 -372t299.5 -138q185 0 298 136.5t113 364.5 q0 234 -111.5 375t-299.5 141q-185 0 -298.5 -140.5t-113.5 -366.5zM414 1886h338l155 -276h-217z" />
<glyph unicode="&#xd3;" horiz-adv-x="1593" d="M82 748q0 128 32 244.5t94.5 212t148.5 165.5t199.5 109t242.5 39q214 0 379 -101t253.5 -278.5t88.5 -401.5q0 -217 -88.5 -390t-253 -272.5t-377.5 -99.5q-215 0 -379.5 100t-252 275.5t-87.5 397.5zM389 748q0 -234 112.5 -372t299.5 -138q185 0 298 136.5t113 364.5 q0 234 -111.5 375t-299.5 141q-185 0 -298.5 -140.5t-113.5 -366.5zM690 1610l156 276h338l-277 -276h-217z" />
<glyph unicode="&#xd4;" horiz-adv-x="1593" d="M82 748q0 128 32 244.5t94.5 212t148.5 165.5t199.5 109t242.5 39q214 0 379 -101t253.5 -278.5t88.5 -401.5q0 -217 -88.5 -390t-253 -272.5t-377.5 -99.5q-215 0 -379.5 100t-252 275.5t-87.5 397.5zM389 748q0 -234 112.5 -372t299.5 -138q185 0 298 136.5t113 364.5 q0 234 -111.5 375t-299.5 141q-185 0 -298.5 -140.5t-113.5 -366.5zM408 1612l266 276h262l254 -276h-193l-200 143l-203 -143h-186z" />
<glyph unicode="&#xd5;" horiz-adv-x="1593" d="M82 748q0 128 32 244.5t94.5 212t148.5 165.5t199.5 109t242.5 39q214 0 379 -101t253.5 -278.5t88.5 -401.5q0 -217 -88.5 -390t-253 -272.5t-377.5 -99.5q-215 0 -379.5 100t-252 275.5t-87.5 397.5zM389 748q0 -234 112.5 -372t299.5 -138q185 0 298 136.5t113 364.5 q0 234 -111.5 375t-299.5 141q-185 0 -298.5 -140.5t-113.5 -366.5zM440 1618q6 120 57 187t136 67q30 0 45 -3.5t70 -23.5l145 -51q28 -12 70 -12q64 0 73 98h129q-12 -260 -194 -260q-46 0 -113 25l-145 53q-37 12 -62 12q-37 0 -55.5 -21t-26.5 -71h-129z" />
<glyph unicode="&#xd6;" horiz-adv-x="1593" d="M82 748q0 128 32 244.5t94.5 212t148.5 165.5t199.5 109t242.5 39q214 0 379 -101t253.5 -278.5t88.5 -401.5q0 -217 -88.5 -390t-253 -272.5t-377.5 -99.5q-215 0 -379.5 100t-252 275.5t-87.5 397.5zM389 748q0 -234 112.5 -372t299.5 -138q185 0 298 136.5t113 364.5 q0 234 -111.5 375t-299.5 141q-185 0 -298.5 -140.5t-113.5 -366.5zM471 1632v236h258v-236h-258zM870 1632v236h258v-236h-258z" />
<glyph unicode="&#xd7;" horiz-adv-x="1196" d="M190 248l263 264l-263 264l144 144l264 -263l264 263l144 -144l-263 -264l263 -264l-144 -144l-264 263l-264 -263z" />
<glyph unicode="&#xd8;" horiz-adv-x="1593" d="M82 748q0 128 32 244.5t94.5 212t148.5 165.5t199.5 109t242.5 39q259 0 446 -150l133 143l140 -131l-142 -151q144 -205 144 -492q0 -217 -88.5 -390t-253 -272.5t-377.5 -99.5q-263 0 -447 148l-131 -141l-139 131l139 149q-141 201 -141 486zM389 748q0 -144 45 -256 l621 671q-103 92 -254 92q-185 0 -298.5 -140.5t-113.5 -366.5zM545 330q106 -92 256 -92q185 0 298 136.5t113 364.5q0 147 -47 262z" />
<glyph unicode="&#xd9;" horiz-adv-x="1478" d="M156 504v989h307v-989q0 -135 70 -200.5t215 -65.5t214.5 65.5t69.5 200.5v989h307v-989q0 -171 -77 -292t-208.5 -179t-305.5 -58q-129 0 -237 33.5t-187.5 98.5t-123.5 166.5t-44 230.5zM354 1886h338l156 -276h-217z" />
<glyph unicode="&#xda;" horiz-adv-x="1478" d="M156 504v989h307v-989q0 -135 70 -200.5t215 -65.5t214.5 65.5t69.5 200.5v989h307v-989q0 -171 -77 -292t-208.5 -179t-305.5 -58q-129 0 -237 33.5t-187.5 98.5t-123.5 166.5t-44 230.5zM631 1610l155 276h338l-276 -276h-217z" />
<glyph unicode="&#xdb;" horiz-adv-x="1478" d="M156 504v989h307v-989q0 -135 70 -200.5t215 -65.5t214.5 65.5t69.5 200.5v989h307v-989q0 -171 -77 -292t-208.5 -179t-305.5 -58q-129 0 -237 33.5t-187.5 98.5t-123.5 166.5t-44 230.5zM348 1612l266 276h263l253 -276h-192l-201 143l-202 -143h-187z" />
<glyph unicode="&#xdc;" horiz-adv-x="1478" d="M156 504v989h307v-989q0 -135 70 -200.5t215 -65.5t214.5 65.5t69.5 200.5v989h307v-989q0 -171 -77 -292t-208.5 -179t-305.5 -58q-129 0 -237 33.5t-187.5 98.5t-123.5 166.5t-44 230.5zM412 1632v236h258v-236h-258zM811 1632v236h258v-236h-258z" />
<glyph unicode="&#xdd;" horiz-adv-x="1366" d="M55 1493h342l305 -659l285 659h344l-473 -940v-553h-307v553zM596 1610l156 276h338l-277 -276h-217z" />
<glyph unicode="&#xde;" horiz-adv-x="1366" d="M156 0v1493h307v-246h352q126 0 209 -27t145 -87q127 -124 127 -351q0 -228 -121.5 -361.5t-328.5 -133.5h-383v-287h-307zM463 543h287q123 0 181 54.5t58 168.5q0 116 -58 170.5t-181 54.5h-287v-448z" />
<glyph unicode="&#xdf;" horiz-adv-x="1251" d="M137 0v1061q0 432 484 432q207 0 338 -104.5t131 -268.5q0 -209 -179 -278q127 -26 197 -121t70 -238q0 -233 -123 -375.5t-324 -142.5q-45 0 -147 12v230l26 2l41 2q107 5 173.5 73t66.5 179q0 117 -75.5 184.5t-205.5 67.5h-26v194h18q92 2 146.5 51t54.5 132 q0 79 -53.5 124.5t-147.5 45.5q-85 0 -131.5 -42.5t-46.5 -119.5v-1100h-287z" />
<glyph unicode="&#xe0;" d="M57 299q0 148 79 226t247 108l115 20q25 4 65.5 10t58.5 9t43 11t35.5 19.5t18.5 31t8 48.5q0 111 -166 111q-105 0 -148.5 -33t-54.5 -119h-276q27 383 473 383q224 0 338.5 -85.5t114.5 -254.5v-614q0 -43 13.5 -71.5t51.5 -63.5v-35h-311q-33 40 -33 139 q-151 -157 -336 -157q-146 0 -241 81.5t-95 235.5zM195 1540h319l143 -315h-204zM344 332q0 -119 156 -119q109 0 168 67.5t59 192.5v49q-27 -13 -47 -19t-74 -16l-98 -18q-92 -18 -128 -46.5t-36 -90.5z" />
<glyph unicode="&#xe1;" d="M57 299q0 148 79 226t247 108l115 20q25 4 65.5 10t58.5 9t43 11t35.5 19.5t18.5 31t8 48.5q0 111 -166 111q-105 0 -148.5 -33t-54.5 -119h-276q27 383 473 383q224 0 338.5 -85.5t114.5 -254.5v-614q0 -43 13.5 -71.5t51.5 -63.5v-35h-311q-33 40 -33 139 q-151 -157 -336 -157q-146 0 -241 81.5t-95 235.5zM344 332q0 -119 156 -119q109 0 168 67.5t59 192.5v49q-27 -13 -47 -19t-74 -16l-98 -18q-92 -18 -128 -46.5t-36 -90.5zM453 1225l143 315h319l-258 -315h-204z" />
<glyph unicode="&#xe2;" d="M57 299q0 148 79 226t247 108l115 20q25 4 65.5 10t58.5 9t43 11t35.5 19.5t18.5 31t8 48.5q0 111 -166 111q-105 0 -148.5 -33t-54.5 -119h-276q27 383 473 383q224 0 338.5 -85.5t114.5 -254.5v-614q0 -43 13.5 -71.5t51.5 -63.5v-35h-311q-33 40 -33 139 q-151 -157 -336 -157q-146 0 -241 81.5t-95 235.5zM209 1225l221 315h260l211 -315h-180l-168 157l-168 -157h-176zM344 332q0 -119 156 -119q109 0 168 67.5t59 192.5v49q-27 -13 -47 -19t-74 -16l-98 -18q-92 -18 -128 -46.5t-36 -90.5z" />
<glyph unicode="&#xe3;" d="M57 299q0 148 79 226t247 108l115 20q25 4 65.5 10t58.5 9t43 11t35.5 19.5t18.5 31t8 48.5q0 111 -166 111q-105 0 -148.5 -33t-54.5 -119h-276q27 383 473 383q224 0 338.5 -85.5t114.5 -254.5v-614q0 -43 13.5 -71.5t51.5 -63.5v-35h-311q-33 40 -33 139 q-151 -157 -336 -157q-146 0 -241 81.5t-95 235.5zM195 1251q6 120 56.5 187t135.5 67q31 0 46.5 -3.5t68.5 -22.5l145 -52q28 -12 70 -12q65 0 74 98h129q-12 -260 -195 -260q-46 0 -113 25l-145 53q-37 12 -61 12q-37 0 -55.5 -21t-26.5 -71h-129zM344 332 q0 -119 156 -119q109 0 168 67.5t59 192.5v49q-27 -13 -47 -19t-74 -16l-98 -18q-92 -18 -128 -46.5t-36 -90.5z" />
<glyph unicode="&#xe4;" d="M57 299q0 148 79 226t247 108l115 20q25 4 65.5 10t58.5 9t43 11t35.5 19.5t18.5 31t8 48.5q0 111 -166 111q-105 0 -148.5 -33t-54.5 -119h-276q27 383 473 383q224 0 338.5 -85.5t114.5 -254.5v-614q0 -43 13.5 -71.5t51.5 -63.5v-35h-311q-33 40 -33 139 q-151 -157 -336 -157q-146 0 -241 81.5t-95 235.5zM225 1266v235h258v-235h-258zM344 332q0 -119 156 -119q109 0 168 67.5t59 192.5v49q-27 -13 -47 -19t-74 -16l-98 -18q-92 -18 -128 -46.5t-36 -90.5zM625 1266v235h258v-235h-258z" />
<glyph unicode="&#xe5;" d="M57 299q0 148 79 226t247 108l115 20q25 4 65.5 10t58.5 9t43 11t35.5 19.5t18.5 31t8 48.5q0 111 -166 111q-105 0 -148.5 -33t-54.5 -119h-276q27 383 473 383q224 0 338.5 -85.5t114.5 -254.5v-614q0 -43 13.5 -71.5t51.5 -63.5v-35h-311q-33 40 -33 139 q-151 -157 -336 -157q-146 0 -241 81.5t-95 235.5zM344 332q0 -119 156 -119q109 0 168 67.5t59 192.5v49q-27 -13 -47 -19t-74 -16l-98 -18q-92 -18 -128 -46.5t-36 -90.5zM350 1382q0 85 60 144t147 59q85 0 143 -59.5t58 -145.5q0 -83 -60.5 -141.5t-142.5 -58.5 q-86 0 -145.5 58.5t-59.5 143.5zM459 1382q0 -39 28.5 -66.5t69.5 -27.5q37 0 64.5 28t27.5 66q0 39 -27 67t-65 28q-41 0 -69.5 -28t-28.5 -67z" />
<glyph unicode="&#xe6;" horiz-adv-x="1820" d="M55 305q0 149 78.5 226.5t247.5 107.5l115 20q28 5 58.5 10t43 7t26 5t20.5 5.5t14.5 6t17.5 9.5q23 12 36 34.5t13 47.5q0 109 -174 109q-97 0 -140.5 -34.5t-54.5 -117.5h-268q6 383 467 383q241 0 358 -102q126 102 318 102q248 0 386 -161t138 -451q0 -24 -2 -49 h-741q0 -128 63 -194t170 -66q69 0 131 34t82 74h283q-48 -143 -188.5 -235t-323.5 -92q-135 0 -240.5 54.5t-169.5 158.5q-95 -112 -195 -163.5t-225 -51.5q-160 0 -252 84.5t-92 238.5zM342 334q0 -121 156 -121q110 0 168.5 67t58.5 193v47q-53 -30 -121 -39l-98 -14 q-85 -13 -124.5 -42.5t-39.5 -90.5zM1014 653h442q-21 252 -223 252q-98 0 -154 -64t-65 -188z" />
<glyph unicode="&#xe7;" d="M70 545q0 281 136.5 430t385.5 149q207 0 334.5 -115t142.5 -317h-274q-25 109 -71.5 155t-133.5 46q-127 0 -180.5 -91.5t-53.5 -256.5q0 -160 62 -246t172 -86q81 0 129 41t76 129h274q-19 -169 -137 -278t-301 -121l-41 -86h82q71 0 113 -44.5t42 -113.5 q0 -94 -69.5 -151.5t-194.5 -57.5q-67 0 -124.5 11.5t-157.5 45.5l38 125q82 -35 127.5 -48t88.5 -13q49 0 82.5 24.5t33.5 59.5q0 63 -104 63h-131l88 187q-209 25 -321.5 168.5t-112.5 390.5z" />
<glyph unicode="&#xe8;" d="M45 539q0 277 136.5 431t375.5 154q244 0 381 -162.5t137 -449.5l-2 -35h-741q6 -153 63.5 -214.5t165.5 -61.5q185 0 219 110h283q-46 -159 -183.5 -244t-328.5 -85q-236 0 -371 146.5t-135 410.5zM197 1540h319l143 -315h-204zM336 668h440q-10 116 -69.5 176.5 t-153.5 60.5q-189 0 -217 -237z" />
<glyph unicode="&#xe9;" d="M45 539q0 277 136.5 431t375.5 154q244 0 381 -162.5t137 -449.5l-2 -35h-741q6 -153 63.5 -214.5t165.5 -61.5q185 0 219 110h283q-46 -159 -183.5 -244t-328.5 -85q-236 0 -371 146.5t-135 410.5zM336 668h440q-10 116 -69.5 176.5t-153.5 60.5q-189 0 -217 -237z M455 1225l143 315h320l-259 -315h-204z" />
<glyph unicode="&#xea;" d="M45 539q0 277 136.5 431t375.5 154q244 0 381 -162.5t137 -449.5l-2 -35h-741q6 -153 63.5 -214.5t165.5 -61.5q185 0 219 110h283q-46 -159 -183.5 -244t-328.5 -85q-236 0 -371 146.5t-135 410.5zM211 1225l221 315h260l211 -315h-180l-168 157l-168 -157h-176z M336 668h440q-10 116 -69.5 176.5t-153.5 60.5q-189 0 -217 -237z" />
<glyph unicode="&#xeb;" d="M45 539q0 277 136.5 431t375.5 154q244 0 381 -162.5t137 -449.5l-2 -35h-741q6 -153 63.5 -214.5t165.5 -61.5q185 0 219 110h283q-46 -159 -183.5 -244t-328.5 -85q-236 0 -371 146.5t-135 410.5zM227 1266v235h258v-235h-258zM336 668h440q-10 116 -69.5 176.5 t-153.5 60.5q-189 0 -217 -237zM627 1266v235h258v-235h-258z" />
<glyph unicode="&#xec;" horiz-adv-x="569" d="M-39 1540h320l143 -315h-205zM137 0v1106h287v-1106h-287z" />
<glyph unicode="&#xed;" horiz-adv-x="569" d="M137 0v1106h287v-1106h-287zM139 1225l144 315h319l-258 -315h-205z" />
<glyph unicode="&#xee;" horiz-adv-x="569" d="M-61 1225l221 315h260l211 -315h-180l-168 157l-168 -157h-176zM137 0v1106h287v-1106h-287z" />
<glyph unicode="&#xef;" horiz-adv-x="569" d="M-45 1266v235h258v-235h-258zM137 0v1106h287v-1106h-287zM354 1266v235h258v-235h-258z" />
<glyph unicode="&#xf0;" horiz-adv-x="1251" d="M72 557q0 243 135 390t354 147q73 0 174 -39q-82 131 -194 196l-158 -94l-86 76l143 90q-71 43 -184 98l137 97q72 -27 178 -86q15 -9 31 -15l178 107l105 -70l-172 -102q234 -158 343 -346t109 -441q0 -281 -143.5 -432t-403.5 -151q-258 0 -402 150t-144 425zM360 547 q0 -157 70 -245.5t188 -88.5t188.5 87t70.5 239v2q0 160 -69.5 249t-189.5 89q-118 0 -188 -88.5t-70 -243.5z" />
<glyph unicode="&#xf1;" horiz-adv-x="1251" d="M129 0v1106h287v-160q62 93 141 135.5t191 42.5q177 0 273.5 -100t96.5 -283v-741h-287v682q0 199 -184 199q-104 0 -167.5 -59.5t-63.5 -157.5v-664h-287zM266 1251q6 120 57 187t136 67q31 0 46 -3.5t68 -22.5l146 -52q28 -12 69 -12q65 0 74 98h129 q-12 -260 -194 -260q-46 0 -113 25l-145 53q-37 12 -62 12q-37 0 -55.5 -21t-26.5 -71h-129z" />
<glyph unicode="&#xf2;" horiz-adv-x="1251" d="M72 553q0 270 144.5 420.5t399.5 150.5q261 0 405 -150t144 -429q0 -264 -147 -413.5t-400 -149.5q-257 0 -401.5 149.5t-144.5 421.5zM264 1540h320l143 -315h-205zM358 553q0 -157 71 -248.5t189 -91.5q117 0 189 91t72 245q0 161 -70.5 252.5t-190.5 91.5 q-118 0 -189 -91.5t-71 -248.5z" />
<glyph unicode="&#xf3;" horiz-adv-x="1251" d="M72 553q0 270 144.5 420.5t399.5 150.5q261 0 405 -150t144 -429q0 -264 -147 -413.5t-400 -149.5q-257 0 -401.5 149.5t-144.5 421.5zM358 553q0 -157 71 -248.5t189 -91.5q117 0 189 91t72 245q0 161 -70.5 252.5t-190.5 91.5q-118 0 -189 -91.5t-71 -248.5zM524 1225 l144 315h319l-258 -315h-205z" />
<glyph unicode="&#xf4;" horiz-adv-x="1251" d="M72 553q0 270 144.5 420.5t399.5 150.5q261 0 405 -150t144 -429q0 -264 -147 -413.5t-400 -149.5q-257 0 -401.5 149.5t-144.5 421.5zM281 1225l221 315h260l211 -315h-180l-168 157l-168 -157h-176zM358 553q0 -157 71 -248.5t189 -91.5q117 0 189 91t72 245 q0 161 -70.5 252.5t-190.5 91.5q-118 0 -189 -91.5t-71 -248.5z" />
<glyph unicode="&#xf5;" horiz-adv-x="1251" d="M72 553q0 270 144.5 420.5t399.5 150.5q261 0 405 -150t144 -429q0 -264 -147 -413.5t-400 -149.5q-257 0 -401.5 149.5t-144.5 421.5zM266 1251q6 120 57 187t136 67q31 0 46 -3.5t68 -22.5l146 -52q28 -12 69 -12q65 0 74 98h129q-12 -260 -194 -260q-46 0 -113 25 l-145 53q-37 12 -62 12q-37 0 -55.5 -21t-26.5 -71h-129zM358 553q0 -157 71 -248.5t189 -91.5q117 0 189 91t72 245q0 161 -70.5 252.5t-190.5 91.5q-118 0 -189 -91.5t-71 -248.5z" />
<glyph unicode="&#xf6;" horiz-adv-x="1251" d="M72 553q0 270 144.5 420.5t399.5 150.5q261 0 405 -150t144 -429q0 -264 -147 -413.5t-400 -149.5q-257 0 -401.5 149.5t-144.5 421.5zM297 1266v235h258v-235h-258zM358 553q0 -157 71 -248.5t189 -91.5q117 0 189 91t72 245q0 161 -70.5 252.5t-190.5 91.5 q-118 0 -189 -91.5t-71 -248.5zM696 1266v235h258v-235h-258z" />
<glyph unicode="&#xf7;" horiz-adv-x="1196" d="M123 410v204h950v-204h-950zM444 139q0 63 45.5 108.5t108.5 45.5t108.5 -45.5t45.5 -108.5q0 -64 -45.5 -108.5t-108.5 -44.5t-108.5 44.5t-45.5 108.5zM444 885q0 64 45.5 108.5t108.5 44.5t108.5 -44.5t45.5 -108.5q0 -63 -45.5 -108.5t-108.5 -45.5t-108.5 45.5 t-45.5 108.5z" />
<glyph unicode="&#xf8;" horiz-adv-x="1251" d="M72 553q0 270 144.5 420.5t399.5 150.5q205 0 338 -92l78 80l123 -119l-82 -86q92 -139 92 -362q0 -264 -147 -413.5t-400 -149.5q-199 0 -335 94l-78 -82l-123 119l82 86q-92 143 -92 354zM358 553q0 -65 17 -131l397 418q-62 53 -154 53q-118 0 -189 -91.5t-71 -248.5z M465 266q65 -53 153 -53q117 0 189 91t72 245q0 69 -17 135z" />
<glyph unicode="&#xf9;" horiz-adv-x="1251" d="M119 365v741h287v-682q0 -199 184 -199q104 0 167.5 59.5t63.5 157.5v664h287v-1106h-287v145q-63 -83 -142 -123t-190 -40q-177 0 -273.5 100t-96.5 283zM264 1540h320l143 -315h-205z" />
<glyph unicode="&#xfa;" horiz-adv-x="1251" d="M119 365v741h287v-682q0 -199 184 -199q104 0 167.5 59.5t63.5 157.5v664h287v-1106h-287v145q-63 -83 -142 -123t-190 -40q-177 0 -273.5 100t-96.5 283zM524 1225l144 315h319l-258 -315h-205z" />
<glyph unicode="&#xfb;" horiz-adv-x="1251" d="M119 365v741h287v-682q0 -199 184 -199q104 0 167.5 59.5t63.5 157.5v664h287v-1106h-287v145q-63 -83 -142 -123t-190 -40q-177 0 -273.5 100t-96.5 283zM281 1225l221 315h260l211 -315h-180l-168 157l-168 -157h-176z" />
<glyph unicode="&#xfc;" horiz-adv-x="1251" d="M119 365v741h287v-682q0 -199 184 -199q104 0 167.5 59.5t63.5 157.5v664h287v-1106h-287v145q-63 -83 -142 -123t-190 -40q-177 0 -273.5 100t-96.5 283zM297 1266v235h258v-235h-258zM696 1266v235h258v-235h-258z" />
<glyph unicode="&#xfd;" d="M18 1106h316l244 -805l229 805h295l-455 -1309q-28 -78 -61.5 -127t-80 -75t-97.5 -35t-129 -9q-39 0 -103 9v215q48 -13 76 -13q75 0 126.5 53.5t51.5 131.5v6zM467 1225l143 315h320l-258 -315h-205z" />
<glyph unicode="&#xfe;" horiz-adv-x="1251" d="M119 -446v1939h287v-551q104 182 307 182q131 0 237 -76t166 -210t60 -301q0 -151 -59.5 -278t-166.5 -202t-237 -75q-204 0 -307 178v-606h-287zM406 537q0 -134 67.5 -225t173.5 -91q105 0 173.5 90t68.5 221q0 158 -66.5 255.5t-175.5 97.5q-107 0 -174 -96.5 t-67 -251.5z" />
<glyph unicode="&#xff;" d="M18 1106h316l244 -805l229 805h295l-455 -1309q-28 -78 -61.5 -127t-80 -75t-97.5 -35t-129 -9q-39 0 -103 9v215q48 -13 76 -13q75 0 126.5 53.5t51.5 131.5v6zM240 1266v235h258v-235h-258zM639 1266v235h258v-235h-258z" />
<glyph unicode="&#x100;" horiz-adv-x="1478" d="M53 0l531 1493h340l516 -1493h-316l-98 301h-559l-100 -301h-314zM446 1669v162h613v-162h-613zM553 557h389l-194 584z" />
<glyph unicode="&#x101;" d="M57 299q0 148 79 226t247 108l115 20q25 4 65.5 10t58.5 9t43 11t35.5 19.5t18.5 31t8 48.5q0 111 -166 111q-105 0 -148.5 -33t-54.5 -119h-276q27 383 473 383q224 0 338.5 -85.5t114.5 -254.5v-614q0 -43 13.5 -71.5t51.5 -63.5v-35h-311q-33 40 -33 139 q-151 -157 -336 -157q-146 0 -241 81.5t-95 235.5zM246 1303v161h612v-161h-612zM344 332q0 -119 156 -119q109 0 168 67.5t59 192.5v49q-27 -13 -47 -19t-74 -16l-98 -18q-92 -18 -128 -46.5t-36 -90.5z" />
<glyph unicode="&#x102;" horiz-adv-x="1478" d="M53 0l531 1493h340l516 -1493h-316l-98 301h-559l-100 -301h-314zM383 1874h145q9 -43 64 -62.5t162 -19.5q211 0 223 82h145q-12 -123 -107 -186.5t-265 -63.5q-165 0 -264.5 61.5t-102.5 188.5zM553 557h389l-194 584z" />
<glyph unicode="&#x103;" d="M57 299q0 148 79 226t247 108l115 20q25 4 65.5 10t58.5 9t43 11t35.5 19.5t18.5 31t8 48.5q0 111 -166 111q-105 0 -148.5 -33t-54.5 -119h-276q27 383 473 383q224 0 338.5 -85.5t114.5 -254.5v-614q0 -43 13.5 -71.5t51.5 -63.5v-35h-311q-33 40 -33 139 q-151 -157 -336 -157q-146 0 -241 81.5t-95 235.5zM213 1538h164q0 -63 49.5 -97t122.5 -34t122.5 34t49.5 97h164q0 -84 -48 -155.5t-125.5 -112.5t-162.5 -41t-162.5 41t-125.5 112.5t-48 155.5zM344 332q0 -119 156 -119q109 0 168 67.5t59 192.5v49q-27 -13 -47 -19 t-74 -16l-98 -18q-92 -18 -128 -46.5t-36 -90.5z" />
<glyph unicode="&#x104;" horiz-adv-x="1478" d="M53 0l531 1493h340l516 -1493q-110 0 -193 -86q-43 -43 -43 -102q0 -52 26 -75.5t81 -23.5h129v-184h-129q-136 0 -218.5 52t-82.5 159q0 155 114 260l-98 301h-559l-100 -301h-314zM553 557h389l-194 584z" />
<glyph unicode="&#x105;" d="M57 299q0 148 79 226t247 108l115 20q25 4 65.5 10t58.5 9t43 11t35.5 19.5t18.5 31t8 48.5q0 111 -166 111q-105 0 -148.5 -33t-54.5 -119h-276q27 383 473 383q224 0 338.5 -85.5t114.5 -254.5v-614q0 -43 13.5 -71.5t51.5 -63.5v-35h-47q-78 0 -133 -55t-55 -133 q0 -52 25.5 -75.5t80.5 -23.5h129v-184h-129q-136 0 -218.5 52t-82.5 159q0 75 31 143t88 117q-33 40 -33 139q-151 -157 -336 -157q-146 0 -241 81.5t-95 235.5zM344 332q0 -119 156 -119q109 0 168 67.5t59 192.5v49q-27 -13 -47 -19t-74 -16l-98 -18q-92 -18 -128 -46.5 t-36 -90.5z" />
<glyph unicode="&#x106;" horiz-adv-x="1478" d="M90 745q0 361 183.5 567t500.5 206q260 0 431.5 -140t191.5 -391h-293q-33 141 -112.5 204.5t-207.5 63.5q-183 0 -285 -134t-102 -380q0 -244 99 -376t278 -132q146 0 231.5 69t98.5 208h299q-9 -169 -90.5 -290t-221 -183t-325.5 -62q-313 0 -494.5 206t-181.5 564z M662 1610l155 276h338l-276 -276h-217z" />
<glyph unicode="&#x107;" d="M70 545q0 281 136.5 430t385.5 149q207 0 334.5 -115t142.5 -317h-274q-25 109 -71.5 155t-133.5 46q-127 0 -180.5 -91.5t-53.5 -256.5q0 -160 62 -246t172 -86q81 0 129 41t76 129h274q-20 -179 -151 -290t-330 -111q-247 0 -382.5 145.5t-135.5 417.5zM489 1225 l144 315h319l-258 -315h-205z" />
<glyph unicode="&#x108;" horiz-adv-x="1478" d="M90 745q0 361 183.5 567t500.5 206q260 0 431.5 -140t191.5 -391h-293q-33 141 -112.5 204.5t-207.5 63.5q-183 0 -285 -134t-102 -380q0 -244 99 -376t278 -132q146 0 231.5 69t98.5 208h299q-9 -169 -90.5 -290t-221 -183t-325.5 -62q-313 0 -494.5 206t-181.5 564z M379 1612l266 276h262l254 -276h-192l-201 143l-203 -143h-186z" />
<glyph unicode="&#x109;" d="M70 545q0 281 136.5 430t385.5 149q207 0 334.5 -115t142.5 -317h-274q-25 109 -71.5 155t-133.5 46q-127 0 -180.5 -91.5t-53.5 -256.5q0 -160 62 -246t172 -86q81 0 129 41t76 129h274q-20 -179 -151 -290t-330 -111q-247 0 -382.5 145.5t-135.5 417.5zM246 1225 l221 315h260l211 -315h-180l-168 157l-168 -157h-176z" />
<glyph unicode="&#x10a;" horiz-adv-x="1478" d="M90 745q0 361 183.5 567t500.5 206q260 0 431.5 -140t191.5 -391h-293q-33 141 -112.5 204.5t-207.5 63.5q-183 0 -285 -134t-102 -380q0 -244 99 -376t278 -132q146 0 231.5 69t98.5 208h299q-9 -169 -90.5 -290t-221 -183t-325.5 -62q-313 0 -494.5 206t-181.5 564z M629 1606v286h286v-286h-286z" />
<glyph unicode="&#x10b;" d="M70 545q0 281 136.5 430t385.5 149q207 0 334.5 -115t142.5 -317h-274q-25 109 -71.5 155t-133.5 46q-127 0 -180.5 -91.5t-53.5 -256.5q0 -160 62 -246t172 -86q81 0 129 41t76 129h274q-20 -179 -151 -290t-330 -111q-247 0 -382.5 145.5t-135.5 417.5zM449 1239v287 h286v-287h-286z" />
<glyph unicode="&#x10c;" horiz-adv-x="1478" d="M90 745q0 361 183.5 567t500.5 206q260 0 431.5 -140t191.5 -391h-293q-33 141 -112.5 204.5t-207.5 63.5q-183 0 -285 -134t-102 -380q0 -244 99 -376t278 -132q146 0 231.5 69t98.5 208h299q-9 -169 -90.5 -290t-221 -183t-325.5 -62q-313 0 -494.5 206t-181.5 564z M381 1888h192l201 -143l203 143h186l-266 -276h-262z" />
<glyph unicode="&#x10d;" d="M70 545q0 281 136.5 430t385.5 149q207 0 334.5 -115t142.5 -317h-274q-25 109 -71.5 155t-133.5 46q-127 0 -180.5 -91.5t-53.5 -256.5q0 -160 62 -246t172 -86q81 0 129 41t76 129h274q-20 -179 -151 -290t-330 -111q-247 0 -382.5 145.5t-135.5 417.5zM246 1540h180 l168 -158l168 158h176l-221 -315h-260z" />
<glyph unicode="&#x10e;" horiz-adv-x="1478" d="M158 0v1493h583q172 0 284 -40.5t187 -131.5q89 -105 136 -253t47 -320q0 -173 -47.5 -321t-135.5 -253q-77 -91 -189 -132.5t-282 -41.5h-583zM352 1888h193l200 -143l203 143h187l-267 -276h-262zM465 256h276q346 0 346 489q0 492 -346 492h-276v-981z" />
<glyph unicode="&#x10f;" horiz-adv-x="1251" d="M59 551q0 249 133 411t332 162q201 0 305 -161v530h287v-1493h-287v127q-111 -145 -305 -145q-142 0 -249.5 77.5t-161.5 205.5t-54 286zM346 551q0 -151 67 -240.5t175 -89.5t174.5 88.5t66.5 237.5q0 157 -65.5 247.5t-175.5 90.5q-108 0 -175 -91t-67 -243zM1239 987 v94q140 27 137 183h-137v229h250v-211q0 -126 -70.5 -209t-179.5 -86z" />
<glyph unicode="&#x110;" horiz-adv-x="1478" d="M0 694v164h158v635h583q175 0 287.5 -40.5t185.5 -131.5q85 -104 133 -257t48 -316q0 -165 -48 -316.5t-133 -257.5q-73 -92 -185.5 -133t-287.5 -41h-583v694h-158zM465 256h276q102 0 174 35.5t111.5 103.5t56.5 152.5t17 197.5q0 114 -17 199.5t-56.5 153.5 t-111 103.5t-174.5 35.5h-276v-379h307v-164h-307v-438z" />
<glyph unicode="&#x111;" horiz-adv-x="1251" d="M59 551q0 249 133 411t332 162q104 0 177.5 -39t127.5 -122v258h-272v137h272v135h287v-135h123v-137h-123v-1221h-287v141q-105 -159 -305 -159q-199 0 -332 161t-133 408zM346 551q0 -151 67 -240.5t175 -89.5t174.5 88.5t66.5 237.5q0 157 -65.5 247.5t-175.5 90.5 q-107 0 -174.5 -91t-67.5 -243z" />
<glyph unicode="&#x112;" horiz-adv-x="1366" d="M162 0v1493h1079v-256h-772v-338h715v-256h-715v-387h809v-256h-1116zM395 1669v162h613v-162h-613z" />
<glyph unicode="&#x113;" d="M45 539q0 277 136.5 431t375.5 154q244 0 381 -162.5t137 -449.5l-2 -35h-741q6 -153 63.5 -214.5t165.5 -61.5q185 0 219 110h283q-46 -159 -183.5 -244t-328.5 -85q-236 0 -371 146.5t-135 410.5zM248 1303v161h612v-161h-612zM336 668h440q-10 116 -69.5 176.5 t-153.5 60.5q-189 0 -217 -237z" />
<glyph unicode="&#x114;" horiz-adv-x="1366" d="M162 0v1493h1079v-256h-772v-338h715v-256h-715v-387h809v-256h-1116zM332 1874h145q9 -43 64 -62.5t161 -19.5q212 0 224 82h145q-12 -123 -107 -186.5t-266 -63.5q-165 0 -264 61.5t-102 188.5z" />
<glyph unicode="&#x115;" d="M45 539q0 277 136.5 431t375.5 154q244 0 381 -162.5t137 -449.5l-2 -35h-741q6 -153 63.5 -214.5t165.5 -61.5q185 0 219 110h283q-46 -159 -183.5 -244t-328.5 -85q-236 0 -371 146.5t-135 410.5zM215 1538h164q0 -63 49.5 -97t122.5 -34t122.5 34t49.5 97h164 q0 -84 -48 -155.5t-125.5 -112.5t-162.5 -41t-162.5 41t-125.5 112.5t-48 155.5zM336 668h440q-10 116 -69.5 176.5t-153.5 60.5q-189 0 -217 -237z" />
<glyph unicode="&#x116;" horiz-adv-x="1366" d="M162 0v1493h1079v-256h-772v-338h715v-256h-715v-387h809v-256h-1116zM561 1606v286h287v-286h-287z" />
<glyph unicode="&#x117;" d="M45 539q0 277 136.5 431t375.5 154q244 0 381 -162.5t137 -449.5l-2 -35h-741q6 -153 63.5 -214.5t165.5 -61.5q185 0 219 110h283q-46 -159 -183.5 -244t-328.5 -85q-236 0 -371 146.5t-135 410.5zM336 668h440q-10 116 -69.5 176.5t-153.5 60.5q-189 0 -217 -237z M414 1239v287h286v-287h-286z" />
<glyph unicode="&#x118;" horiz-adv-x="1366" d="M162 0v1493h1079v-256h-772v-338h715v-256h-715v-387h809v-256q-110 0 -193 -86q-43 -43 -43 -102q0 -52 26 -75.5t81 -23.5h129v-184h-129q-136 0 -218.5 52t-82.5 159q0 70 32.5 128t116.5 132h-835z" />
<glyph unicode="&#x119;" d="M45 539q0 277 136.5 431t375.5 154q244 0 381 -162.5t137 -449.5l-2 -35h-741q6 -153 63.5 -214.5t165.5 -61.5q185 0 219 110h283q-57 -193 -244 -276q-69 -31 -111 -91t-42 -132q0 -52 25.5 -75.5t80.5 -23.5h129v-184h-129q-136 0 -218.5 52t-82.5 159q0 65 29 120.5 t102 123.5q-16 -2 -51 -2q-236 0 -371 146.5t-135 410.5zM336 668h440q-10 116 -69.5 176.5t-153.5 60.5q-189 0 -217 -237z" />
<glyph unicode="&#x11a;" horiz-adv-x="1366" d="M162 0v1493h1079v-256h-772v-338h715v-256h-715v-387h809v-256h-1116zM313 1888h193l201 -143l202 143h187l-267 -276h-262z" />
<glyph unicode="&#x11b;" d="M45 539q0 277 136.5 431t375.5 154q244 0 381 -162.5t137 -449.5l-2 -35h-741q6 -153 63.5 -214.5t165.5 -61.5q185 0 219 110h283q-46 -159 -183.5 -244t-328.5 -85q-236 0 -371 146.5t-135 410.5zM211 1540h180l168 -158l168 158h176l-221 -315h-260zM336 668h440 q-10 116 -69.5 176.5t-153.5 60.5q-189 0 -217 -237z" />
<glyph unicode="&#x11c;" horiz-adv-x="1593" d="M86 748q0 347 199.5 558.5t523.5 211.5q270 0 444.5 -136t202.5 -366h-289q-81 239 -356 239q-196 0 -307 -131.5t-111 -371.5q0 -229 119.5 -371.5t306.5 -142.5q141 0 252.5 86.5t126.5 222.5h-340v256h598v-803h-184l-37 205q-87 -119 -194 -174.5t-257 -55.5 q-199 0 -358.5 98t-249.5 275t-90 400zM418 1612l266 276h262l254 -276h-192l-201 143l-203 -143h-186z" />
<glyph unicode="&#x11d;" horiz-adv-x="1251" d="M70 541q0 255 130 419t328 164q96 0 170 -45t138 -143v170h272v-1143q0 -195 -137.5 -302t-388.5 -107q-223 0 -355 87.5t-135 225.5h297q35 -129 203 -129q107 0 175.5 62.5t68.5 162.5v164q-80 -80 -149 -112.5t-165 -32.5q-205 0 -328.5 151t-123.5 408zM281 1225 l221 315h260l211 -315h-180l-168 157l-168 -157h-176zM356 545q0 -149 63.5 -236.5t166.5 -87.5q114 0 184 87.5t70 236.5q0 152 -70.5 246t-179.5 94q-105 0 -169.5 -92.5t-64.5 -247.5z" />
<glyph unicode="&#x11e;" horiz-adv-x="1593" d="M86 748q0 347 199.5 558.5t523.5 211.5q270 0 444.5 -136t202.5 -366h-289q-81 239 -356 239q-196 0 -307 -131.5t-111 -371.5q0 -229 119.5 -371.5t306.5 -142.5q141 0 252.5 86.5t126.5 222.5h-340v256h598v-803h-184l-37 205q-87 -119 -194 -174.5t-257 -55.5 q-199 0 -358.5 98t-249.5 275t-90 400zM438 1874h146q9 -43 64 -62.5t161 -19.5q211 0 223 82h146q-12 -123 -107 -186.5t-266 -63.5q-165 0 -264.5 61.5t-102.5 188.5z" />
<glyph unicode="&#x11f;" horiz-adv-x="1251" d="M70 541q0 255 130 419t328 164q96 0 170 -45t138 -143v170h272v-1143q0 -195 -137.5 -302t-388.5 -107q-223 0 -355 87.5t-135 225.5h297q35 -129 203 -129q107 0 175.5 62.5t68.5 162.5v164q-80 -80 -149 -112.5t-165 -32.5q-205 0 -328.5 151t-123.5 408zM285 1538h164 q0 -63 49.5 -97t122.5 -34t122.5 34t49.5 97h163q0 -127 -101.5 -218t-233.5 -91q-85 0 -162.5 41t-125.5 112.5t-48 155.5zM356 545q0 -149 63.5 -236.5t166.5 -87.5q114 0 184 87.5t70 236.5q0 152 -70.5 246t-179.5 94q-105 0 -169.5 -92.5t-64.5 -247.5z" />
<glyph unicode="&#x120;" horiz-adv-x="1593" d="M86 748q0 347 199.5 558.5t523.5 211.5q270 0 444.5 -136t202.5 -366h-289q-81 239 -356 239q-196 0 -307 -131.5t-111 -371.5q0 -229 119.5 -371.5t306.5 -142.5q141 0 252.5 86.5t126.5 222.5h-340v256h598v-803h-184l-37 205q-87 -119 -194 -174.5t-257 -55.5 q-199 0 -358.5 98t-249.5 275t-90 400zM668 1606v286h286v-286h-286z" />
<glyph unicode="&#x121;" horiz-adv-x="1251" d="M70 541q0 255 130 419t328 164q96 0 170 -45t138 -143v170h272v-1143q0 -195 -137.5 -302t-388.5 -107q-223 0 -355 87.5t-135 225.5h297q35 -129 203 -129q107 0 175.5 62.5t68.5 162.5v164q-80 -80 -149 -112.5t-165 -32.5q-205 0 -328.5 151t-123.5 408zM356 545 q0 -149 63.5 -236.5t166.5 -87.5q114 0 184 87.5t70 236.5q0 152 -70.5 246t-179.5 94q-105 0 -169.5 -92.5t-64.5 -247.5zM483 1239v287h287v-287h-287z" />
<glyph unicode="&#x122;" horiz-adv-x="1593" d="M86 748q0 347 199.5 558.5t523.5 211.5q270 0 444.5 -136t202.5 -366h-289q-81 239 -356 239q-196 0 -307 -131.5t-111 -371.5q0 -229 119.5 -371.5t306.5 -142.5q141 0 252.5 86.5t126.5 222.5h-340v256h598v-803h-184l-37 205q-87 -119 -194 -174.5t-257 -55.5 q-199 0 -358.5 98t-249.5 275t-90 400zM672 -123h250v-211q0 -126 -70.5 -209t-179.5 -86v94q140 27 137 183h-137v229z" />
<glyph unicode="&#x123;" horiz-adv-x="1251" d="M70 541q0 255 130 419t328 164q96 0 170 -45t138 -143v170h272v-1143q0 -195 -137.5 -302t-388.5 -107q-223 0 -355 87.5t-135 225.5h297q35 -129 203 -129q107 0 175.5 62.5t68.5 162.5v164q-80 -80 -149 -112.5t-165 -32.5q-205 0 -328.5 151t-123.5 408zM356 545 q0 -149 63.5 -236.5t166.5 -87.5q114 0 184 87.5t70 236.5q0 152 -70.5 246t-179.5 94q-105 0 -169.5 -92.5t-64.5 -247.5zM504 1192v211q0 126 70.5 209t179.5 86v-94q-141 -27 -138 -183h138v-229h-250z" />
<glyph unicode="&#x124;" horiz-adv-x="1478" d="M139 0v1493h307v-559h592v559h308v-1493h-308v678h-592v-678h-307zM352 1612l266 276h263l254 -276h-193l-201 143l-202 -143h-187z" />
<glyph unicode="&#x125;" horiz-adv-x="1251" d="M137 0v1493h287v-547q118 178 324 178q163 0 261.5 -98t98.5 -285v-741h-287v676q0 205 -176 205q-97 0 -159 -61t-62 -156v-664h-287zM236 1612l266 276h262l254 -276h-193l-200 143l-203 -143h-186z" />
<glyph unicode="&#x126;" horiz-adv-x="1478" d="M-14 1124v140h153v229h307v-229h592v229h308v-229h153v-140h-153v-1124h-308v678h-592v-678h-307v1124h-153zM446 934h592v190h-592v-190z" />
<glyph unicode="&#x127;" horiz-adv-x="1359" d="M123 1032v148l143 43v270h287v-182l203 61v-145l-203 -62v-219q118 178 324 178q163 0 261.5 -98t98.5 -285v-741h-287v676q0 205 -176 205q-97 0 -159 -61t-62 -156v-664h-287v1077z" />
<glyph unicode="&#x128;" horiz-adv-x="569" d="M-76 1618q6 120 57 187t136 67q29 0 44 -3.5t70 -23.5l146 -51q28 -12 69 -12q65 0 74 98h129q-12 -260 -194 -260q-46 0 -113 25l-145 53q-38 12 -62 12q-37 0 -55.5 -21t-26.5 -71h-129zM129 0v1493h307v-1493h-307z" />
<glyph unicode="&#x129;" horiz-adv-x="569" d="M-76 1251q6 120 57 187t136 67q31 0 46 -3.5t68 -22.5l146 -52q28 -12 69 -12q65 0 74 98h129q-12 -260 -194 -260q-46 0 -113 25l-145 53q-38 12 -62 12q-37 0 -55.5 -21t-26.5 -71h-129zM137 0v1106h287v-1106h-287z" />
<glyph unicode="&#x12a;" horiz-adv-x="569" d="M-25 1669v162h613v-162h-613zM129 0v1493h307v-1493h-307z" />
<glyph unicode="&#x12b;" horiz-adv-x="569" d="M-25 1303v161h613v-161h-613zM137 0v1106h287v-1106h-287z" />
<glyph unicode="&#x12c;" horiz-adv-x="569" d="M-88 1874h145q9 -43 64 -62.5t162 -19.5q211 0 223 82h145q-12 -123 -107 -186.5t-265 -63.5q-165 0 -264.5 61.5t-102.5 188.5zM129 0v1493h307v-1493h-307z" />
<glyph unicode="&#x12d;" horiz-adv-x="569" d="M-57 1538h163q0 -63 49.5 -97t123.5 -34q73 0 122.5 34t49.5 97h163q0 -127 -101.5 -218t-233.5 -91q-85 0 -162.5 41t-125.5 112.5t-48 155.5zM137 0v1106h287v-1106h-287z" />
<glyph unicode="&#x12e;" horiz-adv-x="569" d="M47 -260q0 70 33 128t117 132h-68v1493h307v-1493q-90 -22 -151 -86q-43 -43 -43 -102q0 -52 25.5 -75.5t80.5 -23.5h129v-184h-129q-136 0 -218.5 52t-82.5 159z" />
<glyph unicode="&#x12f;" horiz-adv-x="569" d="M55 -260q0 70 33 128t117 132h-68v1106h287v-1106q-76 -28 -131 -86q-43 -43 -43 -102q0 -52 25.5 -75.5t80.5 -23.5h129v-184h-129q-136 0 -218.5 52t-82.5 159zM141 1239v287h287v-287h-287z" />
<glyph unicode="&#x130;" horiz-adv-x="569" d="M129 0v1493h307v-1493h-307zM141 1606v286h287v-286h-287z" />
<glyph unicode="&#x131;" horiz-adv-x="569" d="M137 0v1106h287v-1106h-287z" />
<glyph unicode="&#x134;" d="M49 428v125h307v-121q0 -103 39 -148.5t127 -45.5q80 0 123 45t43 129v1081h307v-1081q0 -209 -125 -323t-354 -114q-214 0 -340.5 117.5t-126.5 335.5zM451 1612l266 276h262l254 -276h-193l-200 143l-203 -143h-186z" />
<glyph unicode="&#x135;" horiz-adv-x="569" d="M-59 1225l221 315h260l211 -315h-180l-168 157l-168 -157h-176zM8 -207q27 -8 51 -8q46 0 65 19.5t19 66.5v1235h287v-1299q0 -135 -59 -194t-193 -59q-75 0 -170 10v229z" />
<glyph unicode="&#x136;" horiz-adv-x="1478" d="M152 0v1493h307v-655l583 655h363l-596 -643l659 -850h-366l-490 659l-153 -159v-500h-307zM602 -123h250v-211q0 -126 -70.5 -209t-179.5 -86v94q140 27 137 183h-137v229z" />
<glyph unicode="&#x137;" d="M121 0v1493h287v-817l362 430h326l-377 -418l403 -688h-336l-264 487l-114 -125v-362h-287zM432 -123h250v-211q0 -126 -70.5 -209t-179.5 -86v94q140 27 137 183h-137v229z" />
<glyph unicode="&#x139;" horiz-adv-x="1251" d="M164 0v1493h307v-1237h715v-256h-1022zM166 1610l156 276h337l-276 -276h-217z" />
<glyph unicode="&#x13a;" horiz-adv-x="569" d="M137 0v1493h287v-1493h-287zM139 1610l156 276h338l-277 -276h-217z" />
<glyph unicode="&#x13b;" horiz-adv-x="1251" d="M164 0v1493h307v-1237h715v-256h-1022zM539 -123h249v-211q0 -126 -70 -209t-179 -86v94q140 27 137 183h-137v229z" />
<glyph unicode="&#x13c;" horiz-adv-x="569" d="M137 0v1493h287v-1493h-287zM147 -123h250v-211q0 -126 -70.5 -209t-179.5 -86v94q141 27 138 183h-138v229z" />
<glyph unicode="&#x13d;" horiz-adv-x="1251" d="M164 0v1493h307v-1237h715v-256h-1022zM594 987v94q140 27 137 183h-137v229h250v-211q0 -126 -70.5 -209t-179.5 -86z" />
<glyph unicode="&#x13e;" horiz-adv-x="569" d="M137 0v1493h287v-1493h-287zM547 987v94q140 27 137 183h-137v229h250v-211q0 -126 -70.5 -209t-179.5 -86z" />
<glyph unicode="&#x13f;" horiz-adv-x="1251" d="M164 0v1493h307v-1237h715v-256h-1022zM801 623v286h286v-286h-286z" />
<glyph unicode="&#x140;" horiz-adv-x="819" d="M137 0v1493h287v-1493h-287zM547 623v286h287v-286h-287z" />
<glyph unicode="&#x141;" horiz-adv-x="1466" d="M70 301v272l237 146v774h307v-608l430 262v-275l-430 -260v-356h715v-256h-1022v444z" />
<glyph unicode="&#x142;" horiz-adv-x="856" d="M66 414v252l215 157v670h286v-479l230 168v-252l-230 -168v-762h-286v571z" />
<glyph unicode="&#x143;" horiz-adv-x="1478" d="M139 0v1493h316l592 -1016v1016h307v-1493h-307l-601 1032v-1032h-307zM631 1610l155 276h338l-276 -276h-217z" />
<glyph unicode="&#x144;" horiz-adv-x="1251" d="M129 0v1106h287v-160q62 93 141 135.5t191 42.5q177 0 273.5 -100t96.5 -283v-741h-287v682q0 199 -184 199q-104 0 -167.5 -59.5t-63.5 -157.5v-664h-287zM524 1225l144 315h319l-258 -315h-205z" />
<glyph unicode="&#x145;" horiz-adv-x="1478" d="M139 0v1493h316l592 -1016v1016h307v-1493h-307l-601 1032v-1032h-307zM602 -123h250v-211q0 -126 -70.5 -209t-179.5 -86v94q140 27 137 183h-137v229z" />
<glyph unicode="&#x146;" horiz-adv-x="1251" d="M129 0v1106h287v-160q62 93 141 135.5t191 42.5q177 0 273.5 -100t96.5 -283v-741h-287v682q0 199 -184 199q-104 0 -167.5 -59.5t-63.5 -157.5v-664h-287zM489 -123h250v-211q0 -126 -70.5 -209t-179.5 -86v94q141 27 138 183h-138v229z" />
<glyph unicode="&#x147;" horiz-adv-x="1478" d="M139 0v1493h316l592 -1016v1016h307v-1493h-307l-601 1032v-1032h-307zM350 1888h193l200 -143l203 143h187l-267 -276h-262z" />
<glyph unicode="&#x148;" horiz-adv-x="1251" d="M129 0v1106h287v-160q62 93 141 135.5t191 42.5q177 0 273.5 -100t96.5 -283v-741h-287v682q0 199 -184 199q-104 0 -167.5 -59.5t-63.5 -157.5v-664h-287zM281 1540h180l168 -158l168 158h176l-221 -315h-260z" />
<glyph unicode="&#x14a;" horiz-adv-x="1478" d="M139 0v1493h316l592 -1016v1016h307v-1575q0 -209 -125.5 -322.5t-354.5 -113.5q-206 0 -331.5 109.5t-134.5 312.5h309q4 -84 44 -122t120 -38q68 0 117 47t49 113v96l-601 1032v-1032h-307z" />
<glyph unicode="&#x14b;" horiz-adv-x="1251" d="M129 0v1106h287v-160q62 93 141 135.5t191 42.5q177 0 273.5 -100t96.5 -283v-934q0 -135 -59 -194t-193 -59q-75 0 -170 10v229q27 -8 52 -8q46 0 64.5 19.5t18.5 66.5v811q0 199 -184 199q-104 0 -167.5 -59.5t-63.5 -157.5v-664h-287z" />
<glyph unicode="&#x14c;" horiz-adv-x="1593" d="M82 748q0 128 32 244.5t94.5 212t148.5 165.5t199.5 109t242.5 39q214 0 379 -101t253.5 -278.5t88.5 -401.5q0 -217 -88.5 -390t-253 -272.5t-377.5 -99.5q-215 0 -379.5 100t-252 275.5t-87.5 397.5zM389 748q0 -234 112.5 -372t299.5 -138q185 0 298 136.5t113 364.5 q0 234 -111.5 375t-299.5 141q-185 0 -298.5 -140.5t-113.5 -366.5zM492 1669v162h612v-162h-612z" />
<glyph unicode="&#x14d;" horiz-adv-x="1251" d="M72 553q0 270 144.5 420.5t399.5 150.5q261 0 405 -150t144 -429q0 -264 -147 -413.5t-400 -149.5q-257 0 -401.5 149.5t-144.5 421.5zM317 1303v161h613v-161h-613zM358 553q0 -157 71 -248.5t189 -91.5q117 0 189 91t72 245q0 161 -70.5 252.5t-190.5 91.5 q-118 0 -189 -91.5t-71 -248.5z" />
<glyph unicode="&#x14e;" horiz-adv-x="1593" d="M82 748q0 128 32 244.5t94.5 212t148.5 165.5t199.5 109t242.5 39q214 0 379 -101t253.5 -278.5t88.5 -401.5q0 -217 -88.5 -390t-253 -272.5t-377.5 -99.5q-215 0 -379.5 100t-252 275.5t-87.5 397.5zM389 748q0 -234 112.5 -372t299.5 -138q185 0 298 136.5t113 364.5 q0 234 -111.5 375t-299.5 141q-185 0 -298.5 -140.5t-113.5 -366.5zM428 1874h145q9 -43 64 -62.5t162 -19.5q211 0 223 82h145q-12 -123 -107 -186.5t-265 -63.5q-165 0 -264.5 61.5t-102.5 188.5z" />
<glyph unicode="&#x14f;" horiz-adv-x="1251" d="M72 553q0 270 144.5 420.5t399.5 150.5q261 0 405 -150t144 -429q0 -264 -147 -413.5t-400 -149.5q-257 0 -401.5 149.5t-144.5 421.5zM285 1538h164q0 -63 49.5 -97t122.5 -34t122.5 34t49.5 97h163q0 -127 -101.5 -218t-233.5 -91q-85 0 -162.5 41t-125.5 112.5 t-48 155.5zM358 553q0 -157 71 -248.5t189 -91.5q117 0 189 91t72 245q0 161 -70.5 252.5t-190.5 91.5q-118 0 -189 -91.5t-71 -248.5z" />
<glyph unicode="&#x150;" horiz-adv-x="1593" d="M82 748q0 128 32 244.5t94.5 212t148.5 165.5t199.5 109t242.5 39q214 0 379 -101t253.5 -278.5t88.5 -401.5q0 -217 -88.5 -390t-253 -272.5t-377.5 -99.5q-215 0 -379.5 100t-252 275.5t-87.5 397.5zM389 748q0 -234 112.5 -372t299.5 -138q185 0 298 136.5t113 364.5 q0 234 -111.5 375t-299.5 141q-185 0 -298.5 -140.5t-113.5 -366.5zM510 1612l143 315h258l-227 -315h-174zM915 1612l144 315h258l-227 -315h-175z" />
<glyph unicode="&#x151;" horiz-adv-x="1251" d="M72 553q0 270 144.5 420.5t399.5 150.5q261 0 405 -150t144 -429q0 -264 -147 -413.5t-400 -149.5q-257 0 -401.5 149.5t-144.5 421.5zM338 1225l143 315h258l-227 -315h-174zM358 553q0 -157 71 -248.5t189 -91.5q117 0 189 91t72 245q0 161 -70.5 252.5t-190.5 91.5 q-118 0 -189 -91.5t-71 -248.5zM743 1225l144 315h258l-227 -315h-175z" />
<glyph unicode="&#x152;" horiz-adv-x="2048" d="M57 735q0 228 77.5 406.5t218.5 277.5t321 99q97 0 166 -29.5t143 -102.5v107h965v-256h-670v-338h612v-256h-612v-387h709v-256h-1004v150q-75 -95 -144 -131.5t-173 -36.5q-268 0 -438.5 207t-170.5 546zM365 735q0 -230 98.5 -360.5t263.5 -130.5q83 0 141.5 35.5 t102.5 113.5v713q-44 78 -101.5 113.5t-140.5 35.5q-164 0 -264 -142.5t-100 -377.5z" />
<glyph unicode="&#x153;" horiz-adv-x="1933" d="M47 539q0 273 146 429t401 156q250 0 399 -155q134 155 369 155q248 0 385 -162.5t137 -449.5q0 -24 -2 -49h-741q3 -146 60.5 -204t172.5 -58q71 0 132 33.5t83 76.5h283q-51 -144 -190.5 -236.5t-321.5 -92.5q-111 0 -206.5 39.5t-160.5 113.5q-156 -153 -399 -153 q-253 0 -400 151.5t-147 405.5zM334 539q0 -139 72.5 -232.5t187.5 -93.5q114 0 187 93t73 229q0 163 -71 260.5t-189 97.5q-117 0 -188.5 -97.5t-71.5 -256.5zM1145 653h440q-13 126 -71.5 189t-149.5 63q-97 0 -152.5 -64.5t-66.5 -187.5z" />
<glyph unicode="&#x154;" horiz-adv-x="1478" d="M164 0v1493h801q192 0 296.5 -111.5t104.5 -291.5q0 -270 -252 -369q41 -18 63.5 -28.5t47.5 -30t36.5 -33t24 -46.5t17 -60.5t9.5 -86t6 -111.5t3 -147q0 -49 14.5 -75.5t50.5 -47.5v-55h-329q-29 54 -38 102.5t-9 153.5l4 158q0 94 -45.5 136t-145.5 42h-352v-592h-307 zM471 848h371q125 0 171 47t46 152q0 100 -47.5 145t-169.5 45h-371v-389zM631 1610l155 276h338l-276 -276h-217z" />
<glyph unicode="&#x155;" horiz-adv-x="796" d="M129 0v1106h287v-217q45 112 126.5 173.5t180.5 61.5q19 0 35 -2v-291q-58 9 -90 9q-252 0 -252 -252v-588h-287zM313 1225l144 315h319l-258 -315h-205z" />
<glyph unicode="&#x156;" horiz-adv-x="1478" d="M164 0v1493h801q192 0 296.5 -111.5t104.5 -291.5q0 -270 -252 -369q41 -18 63.5 -28.5t47.5 -30t36.5 -33t24 -46.5t17 -60.5t9.5 -86t6 -111.5t3 -147q0 -49 14.5 -75.5t50.5 -47.5v-55h-329q-29 54 -38 102.5t-9 153.5l4 158q0 94 -45.5 136t-145.5 42h-352v-592h-307 zM471 848h371q125 0 171 47t46 152q0 100 -47.5 145t-169.5 45h-371v-389zM602 -123h250v-211q0 -126 -70.5 -209t-179.5 -86v94q140 27 137 183h-137v229z" />
<glyph unicode="&#x157;" horiz-adv-x="796" d="M129 0v1106h287v-217q45 112 126.5 173.5t180.5 61.5q19 0 35 -2v-291q-58 9 -90 9q-252 0 -252 -252v-588h-287zM135 -123h250v-211q0 -126 -70.5 -209t-179.5 -86v94q140 27 137 183h-137v229z" />
<glyph unicode="&#x158;" horiz-adv-x="1478" d="M164 0v1493h801q192 0 296.5 -111.5t104.5 -291.5q0 -270 -252 -369q41 -18 63.5 -28.5t47.5 -30t36.5 -33t24 -46.5t17 -60.5t9.5 -86t6 -111.5t3 -147q0 -49 14.5 -75.5t50.5 -47.5v-55h-329q-29 54 -38 102.5t-9 153.5l4 158q0 94 -45.5 136t-145.5 42h-352v-592h-307 zM350 1888h193l200 -143l203 143h187l-267 -276h-262zM471 848h371q125 0 171 47t46 152q0 100 -47.5 145t-169.5 45h-371v-389z" />
<glyph unicode="&#x159;" horiz-adv-x="796" d="M70 1540h180l168 -158l168 158h176l-221 -315h-260zM129 0v1106h287v-217q45 112 126.5 173.5t180.5 61.5q19 0 35 -2v-291q-58 9 -90 9q-252 0 -252 -252v-588h-287z" />
<glyph unicode="&#x15a;" horiz-adv-x="1366" d="M66 469h299q0 -119 88.5 -183.5t246.5 -64.5q142 0 221.5 49.5t79.5 141.5q0 88 -60.5 130t-219.5 74l-209 41q-228 44 -324 136t-96 266q0 218 148 338.5t417 120.5q277 0 431.5 -123.5t154.5 -356.5h-287q0 113 -82.5 173.5t-230.5 60.5q-118 0 -188 -50t-70 -135 q0 -81 59 -121.5t224 -72.5l233 -45q209 -40 302 -132t93 -267q0 -226 -161 -350t-451 -124q-289 0 -453.5 128.5t-164.5 365.5zM563 1610l156 276h338l-277 -276h-217z" />
<glyph unicode="&#x15b;" d="M59 350h281q18 -85 69 -114t156 -29q213 0 213 94q0 24 -21.5 41.5t-74.5 34.5l-342 106q-76 23 -124 49.5t-74 61t-35 71.5t-9 91q0 170 122 269t333 99q223 0 350.5 -99.5t130.5 -274.5h-276q-3 149 -207 149q-75 0 -120.5 -28t-45.5 -74q0 -34 20 -51.5t80 -34.5 l363 -105q107 -32 162 -100t55 -164v-14q0 -167 -125 -256.5t-358 -89.5q-252 0 -384.5 93t-138.5 275zM467 1225l143 315h320l-258 -315h-205z" />
<glyph unicode="&#x15c;" horiz-adv-x="1366" d="M66 469h299q0 -119 88.5 -183.5t246.5 -64.5q142 0 221.5 49.5t79.5 141.5q0 88 -60.5 130t-219.5 74l-209 41q-228 44 -324 136t-96 266q0 218 148 338.5t417 120.5q277 0 431.5 -123.5t154.5 -356.5h-287q0 113 -82.5 173.5t-230.5 60.5q-118 0 -188 -50t-70 -135 q0 -81 59 -121.5t224 -72.5l233 -45q209 -40 302 -132t93 -267q0 -226 -161 -350t-451 -124q-289 0 -453.5 128.5t-164.5 365.5zM281 1612l266 276h262l254 -276h-193l-200 143l-203 -143h-186z" />
<glyph unicode="&#x15d;" d="M59 350h281q18 -85 69 -114t156 -29q213 0 213 94q0 24 -21.5 41.5t-74.5 34.5l-342 106q-76 23 -124 49.5t-74 61t-35 71.5t-9 91q0 170 122 269t333 99q223 0 350.5 -99.5t130.5 -274.5h-276q-3 149 -207 149q-75 0 -120.5 -28t-45.5 -74q0 -34 20 -51.5t80 -34.5 l363 -105q107 -32 162 -100t55 -164v-14q0 -167 -125 -256.5t-358 -89.5q-252 0 -384.5 93t-138.5 275zM223 1225l221 315h261l210 -315h-180l-168 157l-168 -157h-176z" />
<glyph unicode="&#x15e;" horiz-adv-x="1366" d="M66 469h299q0 -119 88.5 -183.5t246.5 -64.5q142 0 221.5 49.5t79.5 141.5q0 88 -60.5 130t-219.5 74l-209 41q-228 44 -324 136t-96 266q0 218 148 338.5t417 120.5q277 0 431.5 -123.5t154.5 -356.5h-287q0 113 -82.5 173.5t-230.5 60.5q-118 0 -188 -50t-70 -135 q0 -81 59 -121.5t224 -72.5l233 -45q209 -40 302 -132t93 -267q0 -215 -145.5 -337.5t-409.5 -134.5l-39 -79h82q71 0 113.5 -44.5t42.5 -113.5q0 -94 -69.5 -151.5t-194.5 -57.5q-68 0 -125.5 11.5t-157.5 45.5l39 125q82 -35 127 -48t88 -13q49 0 83 24.5t34 59.5 q0 63 -105 63h-131l84 178q-257 15 -401.5 142.5t-144.5 349.5z" />
<glyph unicode="&#x15f;" d="M59 350h281q18 -85 69 -114t156 -29q213 0 213 94q0 24 -21.5 41.5t-74.5 34.5l-342 106q-76 23 -124 49.5t-74 61t-35 71.5t-9 91q0 170 122 269t333 99q223 0 350.5 -99.5t130.5 -274.5h-276q-3 149 -207 149q-75 0 -120.5 -28t-45.5 -74q0 -34 20 -51.5t80 -34.5 l363 -105q107 -32 162 -100t55 -164v-14q0 -162 -117.5 -251t-337.5 -95l-41 -84h82q71 0 113.5 -44.5t42.5 -113.5q0 -94 -69.5 -151.5t-194.5 -57.5q-68 0 -125.5 11.5t-157.5 45.5l39 125q82 -35 127 -48t88 -13q49 0 83 24.5t34 59.5q0 63 -105 63h-131l88 187 q-204 17 -311 109t-113 255z" />
<glyph unicode="&#x160;" horiz-adv-x="1366" d="M66 469h299q0 -119 88.5 -183.5t246.5 -64.5q142 0 221.5 49.5t79.5 141.5q0 88 -60.5 130t-219.5 74l-209 41q-228 44 -324 136t-96 266q0 218 148 338.5t417 120.5q277 0 431.5 -123.5t154.5 -356.5h-287q0 113 -82.5 173.5t-230.5 60.5q-118 0 -188 -50t-70 -135 q0 -81 59 -121.5t224 -72.5l233 -45q209 -40 302 -132t93 -267q0 -226 -161 -350t-451 -124q-289 0 -453.5 128.5t-164.5 365.5zM283 1888h192l201 -143l203 143h186l-266 -276h-262z" />
<glyph unicode="&#x161;" d="M59 350h281q18 -85 69 -114t156 -29q213 0 213 94q0 24 -21.5 41.5t-74.5 34.5l-342 106q-76 23 -124 49.5t-74 61t-35 71.5t-9 91q0 170 122 269t333 99q223 0 350.5 -99.5t130.5 -274.5h-276q-3 149 -207 149q-75 0 -120.5 -28t-45.5 -74q0 -34 20 -51.5t80 -34.5 l363 -105q107 -32 162 -100t55 -164v-14q0 -167 -125 -256.5t-358 -89.5q-252 0 -384.5 93t-138.5 275zM223 1540h180l168 -158l168 158h176l-221 -315h-260z" />
<glyph unicode="&#x162;" horiz-adv-x="1251" d="M29 1237v256h1196v-256h-437v-1237h-106l-51 -102h82q71 0 113 -44.5t42 -113.5q0 -94 -69.5 -151.5t-194.5 -57.5q-67 0 -124.5 11.5t-157.5 45.5l38 125q82 -35 127 -48t88 -13q49 0 83 24.5t34 59.5q0 63 -104 63h-131l96 201h-72v1237h-452z" />
<glyph unicode="&#x163;" horiz-adv-x="681" d="M29 893v190h141v297h287v-297h159v-190h-159v-578q0 -73 18.5 -96.5t75.5 -23.5q21 0 65 6v-201q-12 0 -70 -4t-95 -4h-9l-47 -94h82q71 0 113.5 -44.5t42.5 -113.5q0 -94 -69.5 -151.5t-194.5 -57.5q-68 0 -125.5 11.5t-157.5 45.5l39 125q82 -35 127 -48t88 -13 q49 0 83 24.5t34 59.5q0 63 -105 63h-131l98 209q-149 43 -149 230v655h-141z" />
<glyph unicode="&#x164;" horiz-adv-x="1251" d="M29 1237v256h1196v-256h-437v-1237h-307v1237h-452zM238 1888h192l201 -143l203 143h186l-266 -276h-262z" />
<glyph unicode="&#x165;" horiz-adv-x="681" d="M29 893v190h141v297h287v-297h159v-190h-159v-578q0 -73 18.5 -96.5t75.5 -23.5q21 0 65 6v-201q-12 0 -70 -4t-95 -4q-143 0 -212 58.5t-69 187.5v655h-141zM518 1167v95q140 27 137 182h-137v229h250v-211q0 -126 -70.5 -209t-179.5 -86z" />
<glyph unicode="&#x168;" horiz-adv-x="1478" d="M156 504v989h307v-989q0 -135 70 -200.5t215 -65.5t214.5 65.5t69.5 200.5v989h307v-989q0 -171 -77 -292t-208.5 -179t-305.5 -58q-129 0 -237 33.5t-187.5 98.5t-123.5 166.5t-44 230.5zM381 1618q6 120 56.5 187t135.5 67q30 0 45 -3.5t70 -23.5l146 -51 q28 -12 69 -12q65 0 74 98h129q-12 -260 -195 -260q-45 0 -112 25l-146 53q-37 12 -61 12q-37 0 -55.5 -21t-26.5 -71h-129z" />
<glyph unicode="&#x169;" horiz-adv-x="1251" d="M119 365v741h287v-682q0 -199 184 -199q104 0 167.5 59.5t63.5 157.5v664h287v-1106h-287v145q-63 -83 -142 -123t-190 -40q-177 0 -273.5 100t-96.5 283zM266 1251q6 120 57 187t136 67q31 0 46 -3.5t68 -22.5l146 -52q28 -12 69 -12q65 0 74 98h129q-12 -260 -194 -260 q-46 0 -113 25l-145 53q-37 12 -62 12q-37 0 -55.5 -21t-26.5 -71h-129z" />
<glyph unicode="&#x16a;" horiz-adv-x="1478" d="M156 504v989h307v-989q0 -135 70 -200.5t215 -65.5t214.5 65.5t69.5 200.5v989h307v-989q0 -171 -77 -292t-208.5 -179t-305.5 -58q-129 0 -237 33.5t-187.5 98.5t-123.5 166.5t-44 230.5zM432 1669v162h612v-162h-612z" />
<glyph unicode="&#x16b;" horiz-adv-x="1251" d="M119 365v741h287v-682q0 -199 184 -199q104 0 167.5 59.5t63.5 157.5v664h287v-1106h-287v145q-63 -83 -142 -123t-190 -40q-177 0 -273.5 100t-96.5 283zM317 1303v161h613v-161h-613z" />
<glyph unicode="&#x16c;" horiz-adv-x="1478" d="M156 504v989h307v-989q0 -135 70 -200.5t215 -65.5t214.5 65.5t69.5 200.5v989h307v-989q0 -171 -77 -292t-208.5 -179t-305.5 -58q-129 0 -237 33.5t-187.5 98.5t-123.5 166.5t-44 230.5zM369 1874h145q9 -43 64 -62.5t161 -19.5q212 0 224 82h145q-12 -123 -107 -186.5 t-266 -63.5q-165 0 -264 61.5t-102 188.5z" />
<glyph unicode="&#x16d;" horiz-adv-x="1251" d="M119 365v741h287v-682q0 -199 184 -199q104 0 167.5 59.5t63.5 157.5v664h287v-1106h-287v145q-63 -83 -142 -123t-190 -40q-177 0 -273.5 100t-96.5 283zM285 1538h164q0 -63 49.5 -97t122.5 -34t122.5 34t49.5 97h163q0 -127 -101.5 -218t-233.5 -91q-85 0 -162.5 41 t-125.5 112.5t-48 155.5z" />
<glyph unicode="&#x16e;" horiz-adv-x="1478" d="M156 504v989h307v-989q0 -135 70 -200.5t215 -65.5t214.5 65.5t69.5 200.5v989h307v-989q0 -171 -77 -292t-208.5 -179t-305.5 -58q-129 0 -237 33.5t-187.5 98.5t-123.5 166.5t-44 230.5zM537 1767q0 85 59.5 144t146.5 59q85 0 143 -59.5t58 -145.5q0 -83 -60.5 -141.5 t-142.5 -58.5q-86 0 -145 58.5t-59 143.5zM645 1767q0 -39 28.5 -66.5t69.5 -27.5q37 0 65 28t28 66t-27.5 66.5t-65.5 28.5q-41 0 -69.5 -28t-28.5 -67z" />
<glyph unicode="&#x16f;" horiz-adv-x="1251" d="M119 365v741h287v-682q0 -199 184 -199q104 0 167.5 59.5t63.5 157.5v664h287v-1106h-287v145q-63 -83 -142 -123t-190 -40q-177 0 -273.5 100t-96.5 283zM422 1382q0 85 60 144t147 59q85 0 142.5 -59.5t57.5 -145.5q0 -83 -60 -141.5t-142 -58.5q-86 0 -145.5 58.5 t-59.5 143.5zM530 1382q0 -38 29 -66t70 -28q37 0 64.5 28t27.5 66q0 39 -27 67t-65 28q-41 0 -70 -28t-29 -67z" />
<glyph unicode="&#x170;" horiz-adv-x="1478" d="M156 504v989h307v-989q0 -135 70 -200.5t215 -65.5t214.5 65.5t69.5 200.5v989h307v-989q0 -171 -77 -292t-208.5 -179t-305.5 -58q-129 0 -237 33.5t-187.5 98.5t-123.5 166.5t-44 230.5zM451 1612l143 315h258l-227 -315h-174zM856 1612l143 315h258l-227 -315h-174z " />
<glyph unicode="&#x171;" horiz-adv-x="1251" d="M119 365v741h287v-682q0 -199 184 -199q104 0 167.5 59.5t63.5 157.5v664h287v-1106h-287v145q-63 -83 -142 -123t-190 -40q-177 0 -273.5 100t-96.5 283zM338 1225l143 315h258l-227 -315h-174zM743 1225l144 315h258l-227 -315h-175z" />
<glyph unicode="&#x172;" horiz-adv-x="1478" d="M156 504v989h307v-989q0 -135 70 -200.5t215 -65.5t214.5 65.5t69.5 200.5v989h307v-989q0 -179 -83 -301.5t-230 -179.5q-78 -30 -130 -85t-52 -126q0 -52 25.5 -75.5t80.5 -23.5h129v-184h-129q-136 0 -218.5 52t-82.5 159q0 64 27.5 117t95.5 118h-24 q-129 0 -237 33.5t-187.5 98.5t-123.5 166.5t-44 230.5z" />
<glyph unicode="&#x173;" horiz-adv-x="1251" d="M119 365v741h287v-682q0 -199 184 -199q104 0 167.5 59.5t63.5 157.5v664h287v-1106q-101 -12 -172 -86q-43 -43 -43 -102q0 -52 25.5 -75.5t80.5 -23.5h129v-184h-129q-136 0 -218.5 52t-82.5 159q0 75 32.5 144t90.5 116v145q-63 -83 -142 -123t-190 -40 q-177 0 -273.5 100t-96.5 283z" />
<glyph unicode="&#x174;" horiz-adv-x="1933" d="M27 1493h325l232 -1118l231 1118h303l242 -1120l223 1120h326l-414 -1493h-276l-250 1165l-244 -1165h-276zM575 1612l267 276h262l254 -276h-193l-200 143l-203 -143h-187z" />
<glyph unicode="&#x175;" horiz-adv-x="1593" d="M10 1106h297l176 -774l168 774h287l166 -774l168 774h297l-314 -1106h-297l-165 780l-177 -780h-294zM451 1225l221 315h260l211 -315h-180l-168 157l-168 -157h-176z" />
<glyph unicode="&#x176;" horiz-adv-x="1366" d="M55 1493h342l305 -659l285 659h344l-473 -940v-553h-307v553zM313 1612l267 276h262l254 -276h-193l-201 143l-202 -143h-187z" />
<glyph unicode="&#x177;" d="M18 1106h316l244 -805l229 805h295l-455 -1309q-28 -78 -61.5 -127t-80 -75t-97.5 -35t-129 -9q-39 0 -103 9v215q48 -13 76 -13q75 0 126.5 53.5t51.5 131.5v6zM223 1225l221 315h261l210 -315h-180l-168 157l-168 -157h-176z" />
<glyph unicode="&#x178;" horiz-adv-x="1366" d="M55 1493h342l305 -659l285 659h344l-473 -940v-553h-307v553zM377 1632v236h258v-236h-258zM776 1632v236h258v-236h-258z" />
<glyph unicode="&#x179;" horiz-adv-x="1251" d="M61 0v256l764 981h-764v256h1123v-256l-762 -981h762v-256h-1123zM514 1610l156 276h338l-277 -276h-217z" />
<glyph unicode="&#x17a;" horiz-adv-x="1024" d="M43 0v231l547 643h-510v232h860v-232l-543 -643h561v-231h-915zM410 1225l143 315h319l-258 -315h-204z" />
<glyph unicode="&#x17b;" horiz-adv-x="1251" d="M61 0v256l764 981h-764v256h1123v-256l-762 -981h762v-256h-1123zM481 1606v286h287v-286h-287z" />
<glyph unicode="&#x17c;" horiz-adv-x="1024" d="M43 0v231l547 643h-510v232h860v-232l-543 -643h561v-231h-915zM369 1239v287h286v-287h-286z" />
<glyph unicode="&#x17d;" horiz-adv-x="1251" d="M61 0v256l764 981h-764v256h1123v-256l-762 -981h762v-256h-1123zM233 1888h193l201 -143l202 143h187l-266 -276h-263z" />
<glyph unicode="&#x17e;" horiz-adv-x="1024" d="M43 0v231l547 643h-510v232h860v-232l-543 -643h561v-231h-915zM166 1540h180l168 -158l168 158h176l-221 -315h-260z" />
<glyph unicode="&#x17f;" horiz-adv-x="681" d="M184 0v1217q0 276 283 276q85 0 164 -6v-215q-37 6 -82 6q-78 0 -78 -86v-1192h-287z" />
<glyph unicode="&#x18e;" horiz-adv-x="1366" d="M162 0v256h809v387h-715v256h715v338h-772v256h1079v-1493h-1116z" />
<glyph unicode="&#x192;" d="M43 -406l49 236q71 -43 117 -43q54 0 83.5 50t49.5 177l123 770h-252v199h283l22 121q35 218 127 319t254 101q83 0 197 -35l-41 -236q-72 33 -113 33q-119 0 -156 -219l-14 -84h252v-199h-281l-120 -782q-37 -244 -133 -348.5t-263 -104.5q-98 0 -184 45z" />
<glyph unicode="&#x1a0;" horiz-adv-x="1662" d="M82 750q0 166 54 309.5t155 251.5q192 207 508 207q320 0 512 -207q30 -34 47 -58q115 97 115 240h-134v256h277v-223q0 -256 -186 -389q90 -191 90 -398q0 -158 -56 -310t-153 -255q-94 -101 -219.5 -146.5t-290.5 -45.5t-290.5 45.5t-219.5 146.5q-99 105 -154 256.5 t-55 319.5zM389 750q0 -233 112.5 -369.5t299.5 -136.5q186 0 298.5 135t112.5 362q0 241 -110.5 377.5t-300.5 136.5q-187 0 -299.5 -136t-112.5 -369z" />
<glyph unicode="&#x1a1;" horiz-adv-x="1392" d="M72 553q0 270 144.5 420.5t399.5 150.5q162 0 281.5 -63t187.5 -182q103 96 103 227h-133v256h276v-223q0 -262 -192 -394q26 -95 26 -200q0 -264 -147 -413.5t-400 -149.5q-257 0 -401.5 149.5t-144.5 421.5zM358 553q0 -157 71 -248.5t189 -91.5q117 0 189 91t72 245 q0 161 -70.5 252.5t-190.5 91.5q-118 0 -189 -91.5t-71 -248.5z" />
<glyph unicode="&#x1af;" horiz-adv-x="1697" d="M156 510v983h307v-983q0 -135 70 -200.5t215 -65.5t214.5 65.5t69.5 200.5v983h307v-289q76 43 129.5 116.5t53.5 170.5h-133v256h276v-223q0 -84 -21 -156t-53.5 -120.5t-77.5 -87t-87 -60.5t-87 -37v-553q0 -246 -145 -377q-168 -151 -446 -151q-279 0 -447 151 q-145 131 -145 377z" />
<glyph unicode="&#x1b0;" horiz-adv-x="1474" d="M119 365v741h287v-682q0 -199 184 -199q104 0 167.5 59.5t63.5 157.5v664h287v-291q77 40 132.5 116t55.5 175h-133v256h277v-223q0 -85 -22 -157.5t-55 -121t-79.5 -87.5t-88 -60.5t-87.5 -36.5v-676h-287v160q-62 -93 -141 -135.5t-191 -42.5q-177 0 -273.5 100 t-96.5 283z" />
<glyph unicode="&#x1dd;" d="M45 594l2 35h741q-6 153 -63.5 214.5t-165.5 61.5q-185 0 -219 -110h-283q46 159 183.5 244t328.5 85q236 0 371 -146.5t135 -410.5q0 -277 -136.5 -431t-375.5 -154q-244 0 -381 162.5t-137 449.5zM344 438q10 -116 69.5 -176.5t153.5 -60.5q189 0 217 237h-440z" />
<glyph unicode="&#x1e6;" horiz-adv-x="1593" d="M86 748q0 347 199.5 558.5t523.5 211.5q270 0 444.5 -136t202.5 -366h-289q-81 239 -356 239q-196 0 -307 -131.5t-111 -371.5q0 -229 119.5 -371.5t306.5 -142.5q141 0 252.5 86.5t126.5 222.5h-340v256h598v-803h-184l-37 205q-87 -119 -194 -174.5t-257 -55.5 q-199 0 -358.5 98t-249.5 275t-90 400zM420 1888h192l201 -143l203 143h186l-266 -276h-262z" />
<glyph unicode="&#x1e7;" horiz-adv-x="1251" d="M70 541q0 255 130 419t328 164q96 0 170 -45t138 -143v170h272v-1143q0 -195 -137.5 -302t-388.5 -107q-223 0 -355 87.5t-135 225.5h297q35 -129 203 -129q107 0 175.5 62.5t68.5 162.5v164q-80 -80 -149 -112.5t-165 -32.5q-205 0 -328.5 151t-123.5 408zM281 1540h180 l168 -158l168 158h176l-221 -315h-260zM356 545q0 -149 63.5 -236.5t166.5 -87.5q114 0 184 87.5t70 236.5q0 152 -70.5 246t-179.5 94q-105 0 -169.5 -92.5t-64.5 -247.5z" />
<glyph unicode="&#x1ea;" horiz-adv-x="1593" d="M82 748q0 128 32 244.5t94.5 212t148.5 165.5t199.5 109t242.5 39q214 0 379 -101t253.5 -278.5t88.5 -401.5q0 -246 -113 -432.5t-311 -271.5q-209 -90 -209 -221q0 -52 25.5 -75.5t80.5 -23.5h129v-184h-129q-136 0 -218.5 52t-82.5 159q0 63 27.5 116t95.5 119h-14 q-215 0 -379.5 100t-252 275.5t-87.5 397.5zM389 748q0 -234 112.5 -372t299.5 -138q185 0 298 136.5t113 364.5q0 234 -111.5 375t-299.5 141q-185 0 -298.5 -140.5t-113.5 -366.5z" />
<glyph unicode="&#x1eb;" horiz-adv-x="1251" d="M72 553q0 270 144.5 420.5t399.5 150.5q261 0 405 -150t144 -429q0 -170 -63 -296t-180 -194q-88 -51 -140.5 -109t-52.5 -134q0 -52 26 -75.5t81 -23.5h129v-184h-129q-136 0 -218.5 52t-82.5 159q0 65 29 120.5t102 123.5q-16 -2 -48 -2q-257 0 -401.5 149.5 t-144.5 421.5zM358 553q0 -157 71 -248.5t189 -91.5q117 0 189 91t72 245q0 161 -70.5 252.5t-190.5 91.5q-118 0 -189 -91.5t-71 -248.5z" />
<glyph unicode="&#x1f4;" horiz-adv-x="1593" d="M86 748q0 347 199.5 558.5t523.5 211.5q270 0 444.5 -136t202.5 -366h-289q-81 239 -356 239q-196 0 -307 -131.5t-111 -371.5q0 -229 119.5 -371.5t306.5 -142.5q141 0 252.5 86.5t126.5 222.5h-340v256h598v-803h-184l-37 205q-87 -119 -194 -174.5t-257 -55.5 q-199 0 -358.5 98t-249.5 275t-90 400zM700 1610l156 276h338l-276 -276h-218z" />
<glyph unicode="&#x1f5;" horiz-adv-x="1251" d="M70 541q0 255 130 419t328 164q96 0 170 -45t138 -143v170h272v-1143q0 -195 -137.5 -302t-388.5 -107q-223 0 -355 87.5t-135 225.5h297q35 -129 203 -129q107 0 175.5 62.5t68.5 162.5v164q-80 -80 -149 -112.5t-165 -32.5q-205 0 -328.5 151t-123.5 408zM356 545 q0 -149 63.5 -236.5t166.5 -87.5q114 0 184 87.5t70 236.5q0 152 -70.5 246t-179.5 94q-105 0 -169.5 -92.5t-64.5 -247.5zM524 1225l144 315h319l-258 -315h-205z" />
<glyph unicode="&#x1fa;" horiz-adv-x="1478" d="M53 0l531 1493h340l516 -1493h-316l-98 301h-559l-100 -301h-314zM551 1767q0 85 60 144t147 59q85 0 142.5 -59.5t57.5 -145.5q0 -83 -60 -141.5t-142 -58.5q-86 0 -145.5 58.5t-59.5 143.5zM553 557h389l-194 584zM645 2011l156 277h338l-277 -277h-217zM659 1767 q0 -38 29 -66t70 -28q37 0 64.5 28t27.5 66q0 39 -27 67t-65 28q-41 0 -70 -28t-29 -67z" />
<glyph unicode="&#x1fb;" d="M57 299q0 148 79 226t247 108l115 20q25 4 65.5 10t58.5 9t43 11t35.5 19.5t18.5 31t8 48.5q0 111 -166 111q-105 0 -148.5 -33t-54.5 -119h-276q27 383 473 383q224 0 338.5 -85.5t114.5 -254.5v-614q0 -43 13.5 -71.5t51.5 -63.5v-35h-311q-33 40 -33 139 q-151 -157 -336 -157q-146 0 -241 81.5t-95 235.5zM344 332q0 -119 156 -119q109 0 168 67.5t59 192.5v49q-27 -13 -47 -19t-74 -16l-98 -18q-92 -18 -128 -46.5t-36 -90.5zM352 1380q0 85 60 144t147 59q85 0 143 -59.5t58 -145.5q0 -83 -60.5 -141.5t-142.5 -58.5 q-86 0 -145.5 58.5t-59.5 143.5zM446 1624l156 277h338l-276 -277h-218zM461 1380q0 -39 28.5 -66.5t69.5 -27.5q37 0 64.5 28t27.5 66q0 39 -27 67t-65 28q-41 0 -69.5 -28t-28.5 -67z" />
<glyph unicode="&#x1fc;" horiz-adv-x="2048" d="M2 0l539 1493h1396v-256h-749v-338h694v-256h-694v-387h790v-256h-1097v311h-457l-109 -311h-313zM510 567h371v670h-138zM926 1610l155 276h338l-276 -276h-217z" />
<glyph unicode="&#x1fd;" horiz-adv-x="1820" d="M55 305q0 149 78.5 226.5t247.5 107.5l115 20q28 5 58.5 10t43 7t26 5t20.5 5.5t14.5 6t17.5 9.5q23 12 36 34.5t13 47.5q0 109 -174 109q-97 0 -140.5 -34.5t-54.5 -117.5h-268q6 383 467 383q241 0 358 -102q126 102 318 102q248 0 386 -161t138 -451q0 -24 -2 -49 h-741q0 -128 63 -194t170 -66q69 0 131 34t82 74h283q-48 -143 -188.5 -235t-323.5 -92q-135 0 -240.5 54.5t-169.5 158.5q-95 -112 -195 -163.5t-225 -51.5q-160 0 -252 84.5t-92 238.5zM342 334q0 -121 156 -121q110 0 168.5 67t58.5 193v47q-53 -30 -121 -39l-98 -14 q-85 -13 -124.5 -42.5t-39.5 -90.5zM809 1225l143 315h320l-258 -315h-205zM1014 653h442q-21 252 -223 252q-98 0 -154 -64t-65 -188z" />
<glyph unicode="&#x1fe;" horiz-adv-x="1593" d="M82 748q0 128 32 244.5t94.5 212t148.5 165.5t199.5 109t242.5 39q259 0 446 -150l133 143l140 -131l-142 -151q144 -205 144 -492q0 -217 -88.5 -390t-253 -272.5t-377.5 -99.5q-263 0 -447 148l-131 -141l-139 131l139 149q-141 201 -141 486zM389 748q0 -144 45 -256 l621 671q-103 92 -254 92q-185 0 -298.5 -140.5t-113.5 -366.5zM545 330q106 -92 256 -92q185 0 298 136.5t113 364.5q0 147 -47 262zM688 1610l156 276h338l-277 -276h-217z" />
<glyph unicode="&#x1ff;" horiz-adv-x="1251" d="M72 553q0 270 144.5 420.5t399.5 150.5q205 0 338 -92l78 80l123 -119l-82 -86q92 -139 92 -362q0 -264 -147 -413.5t-400 -149.5q-199 0 -335 94l-78 -82l-123 119l82 86q-92 143 -92 354zM358 553q0 -65 17 -131l397 418q-62 53 -154 53q-118 0 -189 -91.5t-71 -248.5z M465 266q65 -53 153 -53q117 0 189 91t72 245q0 69 -17 135zM524 1225l144 315h319l-258 -315h-205z" />
<glyph unicode="&#x200;" horiz-adv-x="1478" d="M53 0l531 1493h340l516 -1493h-316l-98 301h-559l-100 -301h-314zM236 1927h258l143 -315h-174zM553 557h389l-194 584zM641 1927h258l143 -315h-174z" />
<glyph unicode="&#x201;" d="M37 1540h258l143 -315h-174zM57 299q0 148 79 226t247 108l115 20q25 4 65.5 10t58.5 9t43 11t35.5 19.5t18.5 31t8 48.5q0 111 -166 111q-105 0 -148.5 -33t-54.5 -119h-276q27 383 473 383q224 0 338.5 -85.5t114.5 -254.5v-614q0 -43 13.5 -71.5t51.5 -63.5v-35h-311 q-33 40 -33 139q-151 -157 -336 -157q-146 0 -241 81.5t-95 235.5zM344 332q0 -119 156 -119q109 0 168 67.5t59 192.5v49q-27 -13 -47 -19t-74 -16l-98 -18q-92 -18 -128 -46.5t-36 -90.5zM442 1540h258l144 -315h-174z" />
<glyph unicode="&#x204;" horiz-adv-x="1366" d="M162 0v1493h1079v-256h-772v-338h715v-256h-715v-387h809v-256h-1116zM184 1927h258l144 -315h-174zM590 1927h258l143 -315h-174z" />
<glyph unicode="&#x205;" d="M39 1540h258l143 -315h-174zM45 539q0 277 136.5 431t375.5 154q244 0 381 -162.5t137 -449.5l-2 -35h-741q6 -153 63.5 -214.5t165.5 -61.5q185 0 219 110h283q-46 -159 -183.5 -244t-328.5 -85q-236 0 -371 146.5t-135 410.5zM336 668h440q-10 116 -69.5 176.5 t-153.5 60.5q-189 0 -217 -237zM444 1540h258l144 -315h-174z" />
<glyph unicode="&#x208;" horiz-adv-x="569" d="M-236 1927h259l143 -315h-174zM129 0v1493h307v-1493h-307zM170 1927h258l143 -315h-174z" />
<glyph unicode="&#x209;" horiz-adv-x="569" d="M-233 1540h258l143 -315h-174zM137 0v1106h287v-1106h-287zM172 1540h258l143 -315h-174z" />
<glyph unicode="&#x20c;" horiz-adv-x="1593" d="M82 748q0 128 32 244.5t94.5 212t148.5 165.5t199.5 109t242.5 39q214 0 379 -101t253.5 -278.5t88.5 -401.5q0 -217 -88.5 -390t-253 -272.5t-377.5 -99.5q-215 0 -379.5 100t-252 275.5t-87.5 397.5zM281 1927h258l143 -315h-174zM389 748q0 -234 112.5 -372 t299.5 -138q185 0 298 136.5t113 364.5q0 234 -111.5 375t-299.5 141q-185 0 -298.5 -140.5t-113.5 -366.5zM686 1927h258l143 -315h-174z" />
<glyph unicode="&#x20d;" horiz-adv-x="1251" d="M72 553q0 270 144.5 420.5t399.5 150.5q261 0 405 -150t144 -429q0 -264 -147 -413.5t-400 -149.5q-257 0 -401.5 149.5t-144.5 421.5zM106 1540h259l143 -315h-174zM358 553q0 -157 71 -248.5t189 -91.5q117 0 189 91t72 245q0 161 -70.5 252.5t-190.5 91.5 q-118 0 -189 -91.5t-71 -248.5zM512 1540h258l143 -315h-174z" />
<glyph unicode="&#x210;" horiz-adv-x="1478" d="M164 0v1493h801q192 0 296.5 -111.5t104.5 -291.5q0 -270 -252 -369q41 -18 63.5 -28.5t47.5 -30t36.5 -33t24 -46.5t17 -60.5t9.5 -86t6 -111.5t3 -147q0 -49 14.5 -75.5t50.5 -47.5v-55h-329q-29 54 -38 102.5t-9 153.5l4 158q0 94 -45.5 136t-145.5 42h-352v-592h-307 zM221 1927h258l144 -315h-174zM471 848h371q125 0 171 47t46 152q0 100 -47.5 145t-169.5 45h-371v-389zM627 1927h258l143 -315h-174z" />
<glyph unicode="&#x211;" horiz-adv-x="796" d="M-102 1540h258l143 -315h-174zM129 0v1106h287v-217q45 112 126.5 173.5t180.5 61.5q19 0 35 -2v-291q-58 9 -90 9q-252 0 -252 -252v-588h-287zM303 1540h258l144 -315h-175z" />
<glyph unicode="&#x214;" horiz-adv-x="1478" d="M156 504v989h307v-989q0 -135 70 -200.5t215 -65.5t214.5 65.5t69.5 200.5v989h307v-989q0 -171 -77 -292t-208.5 -179t-305.5 -58q-129 0 -237 33.5t-187.5 98.5t-123.5 166.5t-44 230.5zM221 1927h258l144 -315h-174zM627 1927h258l143 -315h-174z" />
<glyph unicode="&#x215;" horiz-adv-x="1251" d="M106 1540h259l143 -315h-174zM119 365v741h287v-682q0 -199 184 -199q104 0 167.5 59.5t63.5 157.5v664h287v-1106h-287v145q-63 -83 -142 -123t-190 -40q-177 0 -273.5 100t-96.5 283zM512 1540h258l143 -315h-174z" />
<glyph unicode="&#x218;" horiz-adv-x="1366" d="M66 469h299q0 -119 88.5 -183.5t246.5 -64.5q142 0 221.5 49.5t79.5 141.5q0 88 -60.5 130t-219.5 74l-209 41q-228 44 -324 136t-96 266q0 218 148 338.5t417 120.5q277 0 431.5 -123.5t154.5 -356.5h-287q0 113 -82.5 173.5t-230.5 60.5q-118 0 -188 -50t-70 -135 q0 -81 59 -121.5t224 -72.5l233 -45q209 -40 302 -132t93 -267q0 -226 -161 -350t-451 -124q-289 0 -453.5 128.5t-164.5 365.5zM535 -123h249v-211q0 -126 -70 -209t-179 -86v94q140 27 137 183h-137v229z" />
<glyph unicode="&#x219;" d="M59 350h281q18 -85 69 -114t156 -29q213 0 213 94q0 24 -21.5 41.5t-74.5 34.5l-342 106q-76 23 -124 49.5t-74 61t-35 71.5t-9 91q0 170 122 269t333 99q223 0 350.5 -99.5t130.5 -274.5h-276q-3 149 -207 149q-75 0 -120.5 -28t-45.5 -74q0 -34 20 -51.5t80 -34.5 l363 -105q107 -32 162 -100t55 -164v-14q0 -167 -125 -256.5t-358 -89.5q-252 0 -384.5 93t-138.5 275zM432 -123h250v-211q0 -126 -70.5 -209t-179.5 -86v94q140 27 137 183h-137v229z" />
<glyph unicode="&#x21a;" horiz-adv-x="1251" d="M29 1237v256h1196v-256h-437v-1237h-307v1237h-452zM489 -123h250v-211q0 -126 -70.5 -209t-179.5 -86v94q141 27 138 183h-138v229z" />
<glyph unicode="&#x21b;" horiz-adv-x="681" d="M29 893v190h141v297h287v-297h159v-190h-159v-578q0 -73 18.5 -96.5t75.5 -23.5q21 0 65 6v-201q-12 0 -70 -4t-95 -4q-143 0 -212 58.5t-69 187.5v655h-141zM205 -123h250v-211q0 -126 -70.5 -209t-179.5 -86v94q140 27 137 183h-137v229z" />
<glyph unicode="&#x258;" d="M45 512q0 287 137 449.5t381 162.5q239 0 375.5 -154t136.5 -431q0 -264 -135 -410.5t-371 -146.5q-191 0 -328.5 85t-183.5 244h283q34 -110 219 -110q108 0 165.5 61.5t63.5 214.5h-741zM344 668h440q-28 237 -217 237q-94 0 -153.5 -60.5t-69.5 -176.5z" />
<glyph unicode="&#x259;" d="M45 594l2 35h741q-6 153 -63.5 214.5t-165.5 61.5q-185 0 -219 -110h-283q46 159 183.5 244t328.5 85q236 0 371 -146.5t135 -410.5q0 -277 -136.5 -431t-375.5 -154q-244 0 -381 162.5t-137 449.5zM344 438q10 -116 69.5 -176.5t153.5 -60.5q189 0 217 237h-440z" />
<glyph unicode="&#x2be;" horiz-adv-x="944" d="M123 956q-1 7 3.5 13t12.5 6h183q12 0 16 -14q14 -65 41.5 -93t79.5 -28q78 0 108.5 56.5t30.5 160.5q0 98 -36.5 151.5t-102.5 53.5q-48 0 -77 -25.5t-44 -77.5q-4 -12 -16 -12h-183q-8 0 -12.5 5.5t-3.5 12.5q14 126 105.5 204.5t230.5 78.5q173 0 267.5 -101 t94.5 -290q0 -195 -95.5 -299.5t-268.5 -104.5q-146 0 -235 80.5t-99 222.5z" />
<glyph unicode="&#x2bf;" horiz-adv-x="944" d="M123 1044q0 195 95.5 299.5t268.5 104.5q146 0 235 -80.5t99 -222.5q1 -7 -3.5 -13t-12.5 -6h-182q-13 0 -17 15q-14 65 -41.5 93t-79.5 28q-78 0 -108.5 -57t-30.5 -161q0 -98 36.5 -151t102.5 -53q49 0 77.5 25t43.5 77q4 12 17 12h182q8 0 12.5 -5.5t3.5 -12.5 q-14 -126 -105.5 -204.5t-230.5 -78.5q-173 0 -267.5 101t-94.5 290z" />
<glyph unicode="&#x2c6;" horiz-adv-x="681" d="M-4 1225l221 315h260l211 -315h-180l-168 157l-168 -157h-176z" />
<glyph unicode="&#x2c7;" horiz-adv-x="681" d="M-4 1540h180l168 -158l168 158h176l-221 -315h-260z" />
<glyph unicode="&#x2d8;" horiz-adv-x="681" d="M0 1538h164q0 -63 49.5 -97t122.5 -34t122.5 34t49.5 97h164q0 -84 -48 -155.5t-125.5 -112.5t-162.5 -41t-162.5 41t-125.5 112.5t-48 155.5z" />
<glyph unicode="&#x2d9;" horiz-adv-x="681" d="M199 1239v287h286v-287h-286z" />
<glyph unicode="&#x2da;" horiz-adv-x="681" d="M137 1382q0 85 60 144t147 59q85 0 143 -59.5t58 -145.5q0 -83 -60.5 -141.5t-142.5 -58.5q-86 0 -145.5 58.5t-59.5 143.5zM246 1382q0 -39 28.5 -66.5t69.5 -27.5q37 0 64.5 28t27.5 66q0 39 -27 67t-65 28q-41 0 -69.5 -28t-28.5 -67z" />
<glyph unicode="&#x2db;" horiz-adv-x="681" d="M154 -260q0 70 32.5 128t116.5 132h215q-93 -50 -131.5 -89.5t-38.5 -98.5q0 -52 26 -75.5t81 -23.5h129v-184h-129q-136 0 -218.5 52t-82.5 159z" />
<glyph unicode="&#x2dc;" horiz-adv-x="681" d="M-18 1251q6 120 56.5 187t135.5 67q31 0 46.5 -3.5t68.5 -22.5l145 -52q28 -12 70 -12q65 0 74 98h129q-12 -260 -195 -260q-46 0 -113 25l-145 53q-38 12 -61 12q-37 0 -55.5 -21t-26.5 -71h-129z" />
<glyph unicode="&#x2dd;" horiz-adv-x="681" d="M53 1225l144 315h258l-228 -315h-174zM459 1225l143 315h258l-227 -315h-174z" />
<glyph unicode="&#x300;" horiz-adv-x="0" d="M-930 1540h320l143 -315h-205z" />
<glyph unicode="&#x301;" horiz-adv-x="0" d="M-670 1225l144 315h319l-258 -315h-205z" />
<glyph unicode="&#x302;" horiz-adv-x="0" d="M-913 1225l221 315h260l211 -315h-180l-168 157l-168 -157h-176z" />
<glyph unicode="&#x303;" horiz-adv-x="0" d="M-928 1251q6 120 57 187t136 67q31 0 46 -3.5t68 -22.5l146 -52q28 -12 69 -12q65 0 74 98h129q-12 -260 -194 -260q-46 0 -113 25l-145 53q-37 12 -62 12q-37 0 -55.5 -21t-26.5 -71h-129z" />
<glyph unicode="&#x304;" horiz-adv-x="0" d="M-877 1303v161h613v-161h-613z" />
<glyph unicode="&#x306;" horiz-adv-x="0" d="M-909 1538h164q0 -63 49.5 -97t122.5 -34t122.5 34t49.5 97h163q0 -127 -101.5 -218t-233.5 -91q-85 0 -162.5 41t-125.5 112.5t-48 155.5z" />
<glyph unicode="&#x307;" horiz-adv-x="0" d="M-711 1239v287h287v-287h-287z" />
<glyph unicode="&#x308;" horiz-adv-x="0" d="M-897 1266v235h258v-235h-258zM-498 1266v235h258v-235h-258z" />
<glyph unicode="&#x309;" horiz-adv-x="0" d="M-799 1419q0 110 61 161.5t167 51.5q103 0 168 -50t65 -128q0 -47 -24 -79t-89 -70q-39 -22 -49 -36.5t-10 -51.5h-127q0 56 20.5 90t75.5 71q38 27 49 39t11 33q0 32 -25 53t-63 21q-43 0 -68 -27t-25 -78h-137z" />
<glyph unicode="&#x30a;" horiz-adv-x="0" d="M-772 1382q0 85 60 144t147 59q85 0 142.5 -59.5t57.5 -145.5q0 -83 -60 -141.5t-142 -58.5q-86 0 -145.5 58.5t-59.5 143.5zM-664 1382q0 -38 29 -66t70 -28q37 0 64.5 28t27.5 66q0 39 -27 67t-65 28q-41 0 -70 -28t-29 -67z" />
<glyph unicode="&#x30b;" horiz-adv-x="0" d="M-856 1225l143 315h258l-227 -315h-174zM-451 1225l144 315h258l-227 -315h-175z" />
<glyph unicode="&#x30c;" horiz-adv-x="0" d="M-913 1540h180l168 -158l168 158h176l-221 -315h-260z" />
<glyph unicode="&#x30f;" horiz-adv-x="0" d="M-1087 1540h258l143 -315h-174zM-682 1540h258l143 -315h-174z" />
<glyph unicode="&#x311;" horiz-adv-x="0" d="M-909 1229q0 84 48 155.5t125.5 112.5t162.5 41q132 0 233.5 -91t101.5 -218h-163q0 63 -49.5 97t-122.5 34t-122.5 -34t-49.5 -97h-164z" />
<glyph unicode="&#x323;" horiz-adv-x="0" d="M-711 -133h287v-287h-287v287z" />
<glyph unicode="&#x326;" horiz-adv-x="0" d="M-692 -123h250v-211q0 -126 -70.5 -209t-179.5 -86v94q140 27 137 183h-137v229z" />
<glyph unicode="&#x32e;" horiz-adv-x="0" d="M-938 -152h145q9 -43 64 -62t162 -19q212 0 223 81h145q-12 -123 -106.5 -186t-265.5 -63q-165 0 -264.5 61t-102.5 188z" />
<glyph unicode="&#x32f;" horiz-adv-x="0" d="M-938 -401q12 123 107 186t266 63q165 0 264 -61t102 -188h-145q-9 43 -64 62.5t-161 19.5q-212 0 -224 -82h-145z" />
<glyph unicode="&#x330;" horiz-adv-x="0" d="M-928 -408q6 120 57 187t136 67q31 0 46 -3.5t68 -22.5l146 -51q30 -13 69 -13q65 0 74 99h129q-12 -261 -194 -261q-46 0 -113 25l-145 53q-41 13 -62 13q-37 0 -55.5 -21.5t-26.5 -71.5h-129z" />
<glyph unicode="&#x331;" horiz-adv-x="0" d="M-877 -195h613v-161h-613v161z" />
<glyph unicode="&#x332;" horiz-adv-x="0" d="M-877 -195h613v-161h-613v161z" />
<glyph unicode="&#x391;" horiz-adv-x="1478" d="M53 0l531 1493h340l516 -1493h-316l-98 301h-559l-100 -301h-314zM553 557h389l-194 584z" />
<glyph unicode="&#x392;" horiz-adv-x="1478" d="M168 0v1493h666q113 0 206.5 -31.5t154 -86t93.5 -125t33 -150.5q0 -95 -47.5 -165.5t-157.5 -141.5q248 -145 248 -363q0 -192 -135.5 -311t-388.5 -119h-672zM475 256h367q112 0 169.5 49.5t57.5 143.5q0 95 -57.5 144.5t-169.5 49.5h-367v-387zM475 899h334 q106 0 161.5 43t55.5 125q0 83 -55.5 126.5t-161.5 43.5h-334v-338z" />
<glyph unicode="&#x393;" horiz-adv-x="1251" d="M152 0v1493h1048v-256h-741v-1237h-307z" />
<glyph unicode="&#x394;" horiz-adv-x="1492" d="M-14 0l628 1448h265l628 -1448h-1521zM424 287h645l-321 743z" />
<glyph unicode="&#x395;" horiz-adv-x="1366" d="M162 0v1493h1079v-256h-772v-338h715v-256h-715v-387h809v-256h-1116z" />
<glyph unicode="&#x396;" horiz-adv-x="1251" d="M61 0v256l764 981h-764v256h1123v-256l-762 -981h762v-256h-1123z" />
<glyph unicode="&#x397;" horiz-adv-x="1478" d="M139 0v1493h307v-559h592v559h308v-1493h-308v678h-592v-678h-307z" />
<glyph unicode="&#x398;" horiz-adv-x="1593" d="M82 748q0 128 32 244.5t94.5 212t148.5 165.5t199.5 109t242.5 39q214 0 379 -101t253.5 -278.5t88.5 -401.5q0 -217 -88.5 -390t-253 -272.5t-377.5 -99.5q-215 0 -379.5 100t-252 275.5t-87.5 397.5zM389 748q0 -234 112.5 -372t299.5 -138q185 0 298 136.5t113 364.5 q0 234 -111.5 375t-299.5 141q-185 0 -298.5 -140.5t-113.5 -366.5zM535 604v287h532v-287h-532z" />
<glyph unicode="&#x399;" horiz-adv-x="569" d="M129 0v1493h307v-1493h-307z" />
<glyph unicode="&#x39a;" horiz-adv-x="1478" d="M152 0v1493h307v-655l583 655h363l-596 -643l659 -850h-366l-490 659l-153 -159v-500h-307z" />
<glyph unicode="&#x39b;" horiz-adv-x="1478" d="M53 0l531 1493h340l516 -1493h-316l-376 1141l-381 -1141h-314z" />
<glyph unicode="&#x39c;" horiz-adv-x="1705" d="M135 0v1493h459l270 -1188l262 1188h463v-1493h-307v1163l-264 -1163h-307l-269 1163v-1163h-307z" />
<glyph unicode="&#x39d;" horiz-adv-x="1478" d="M139 0v1493h316l592 -1016v1016h307v-1493h-307l-601 1032v-1032h-307z" />
<glyph unicode="&#x39e;" horiz-adv-x="1478" d="M154 0v307h1171v-307h-1171zM154 1186v307h1171v-307h-1171zM461 604v287h557v-287h-557z" />
<glyph unicode="&#x39f;" horiz-adv-x="1593" d="M82 748q0 128 32 244.5t94.5 212t148.5 165.5t199.5 109t242.5 39q214 0 379 -101t253.5 -278.5t88.5 -401.5q0 -217 -88.5 -390t-253 -272.5t-377.5 -99.5q-215 0 -379.5 100t-252 275.5t-87.5 397.5zM389 748q0 -234 112.5 -372t299.5 -138q185 0 298 136.5t113 364.5 q0 234 -111.5 375t-299.5 141q-185 0 -298.5 -140.5t-113.5 -366.5z" />
<glyph unicode="&#x3a0;" horiz-adv-x="1349" d="M72 0v1493h1206v-1493h-307v1237h-592v-1237h-307z" />
<glyph unicode="&#x3a1;" horiz-adv-x="1366" d="M156 0v1493h659q233 0 357 -119.5t124 -343.5q0 -227 -122.5 -362.5t-327.5 -135.5h-383v-532h-307zM463 788h287q123 0 181 55t58 169q0 116 -58 170.5t-181 54.5h-287v-449z" />
<glyph unicode="&#x3a3;" horiz-adv-x="1253" d="M72 0v276l469 472l-469 469v276h1110v-256h-768l489 -489l-489 -492h768v-256h-1110z" />
<glyph unicode="&#x3a4;" horiz-adv-x="1251" d="M29 1237v256h1196v-256h-437v-1237h-307v1237h-452z" />
<glyph unicode="&#x3a5;" horiz-adv-x="1366" d="M55 1493h342l305 -659l285 659h344l-473 -940v-553h-307v553z" />
<glyph unicode="&#x3a6;" horiz-adv-x="1558" d="M123 748q0 94 40 176t109.5 141.5t160 100t194.5 57.5v270h307v-270q104 -17 194.5 -57.5t160 -100t109.5 -141.5t40 -176q0 -187 -144 -314.5t-360 -163.5v-270h-307v270q-216 36 -360 163.5t-144 314.5zM410 748q0 -87 59.5 -147.5t157.5 -88.5v469q-98 -28 -157.5 -88 t-59.5 -145zM934 512q98 28 157.5 88.5t59.5 147.5q0 85 -59.5 145t-157.5 88v-469z" />
<glyph unicode="&#x3a7;" horiz-adv-x="1366" d="M45 0l471 752l-455 741h365l262 -492l275 492h356l-461 -731l479 -762h-364l-287 518l-285 -518h-356z" />
<glyph unicode="&#x3a8;" horiz-adv-x="1523" d="M123 1106v387h287v-387q0 -126 53.5 -234t144.5 -161v782h307v-782q91 54 145 161.5t54 233.5v387h287v-387q0 -232 -136.5 -413.5t-349.5 -237.5v-455h-307v455q-213 56 -349 237.5t-136 413.5z" />
<glyph unicode="&#x3a9;" horiz-adv-x="1576" d="M72 0v256h290v131q-103 91 -161 216t-58 269q0 174 86.5 323t235 236t323.5 87q131 0 250.5 -51.5t206 -138.5t138 -206.5t51.5 -249.5q0 -143 -58 -268.5t-162 -216.5v-131h291v-256h-598v506q99 43 159 143.5t60 222.5q0 158 -97 274t-241 116t-240.5 -116t-96.5 -274 q0 -122 60 -222.5t159 -143.5v-506h-598z" />
<glyph unicode="&#x3b1;" horiz-adv-x="1589" d="M123 492q0 122 46.5 234t125 193.5t188 130t230.5 48.5q239 0 409 -236q41 203 117 318l227 -148q-46 -72 -74 -163.5t-52 -204.5t-46 -177q40 -132 78 -229.5t94 -183.5l-227 -148q-52 78 -119 269q-82 -88 -186.5 -137.5t-220.5 -49.5q-115 0 -222 35.5t-188.5 97.5 t-130.5 154t-49 197zM410 492q0 -109 90 -179.5t213 -70.5q103 0 184 70.5t129 181.5q-20 63 -37.5 109.5t-46 98.5t-59 85t-75 55t-95.5 22q-88 0 -158.5 -52.5t-107.5 -137t-37 -182.5z" />
<glyph unicode="&#x3b2;" horiz-adv-x="1394" d="M209 -471v1532q0 120 29.5 199t95.5 131q60 47 156 74.5t202 27.5q207 0 338 -104.5t131 -268.5q0 -210 -178 -278q52 -10 88 -28.5t74 -53.5q56 -54 80 -118t24 -159q0 -231 -121.5 -366t-324.5 -135q-163 0 -307 81v-534h-287zM496 350q36 -58 96.5 -90.5t130.5 -32.5 q107 0 173.5 64t66.5 172q0 117 -75.5 184.5t-205.5 67.5h-27v194h19q92 2 146 51t54 132q0 80 -53 125t-147 45q-85 0 -131.5 -42.5t-46.5 -119.5v-750z" />
<glyph unicode="&#x3b3;" horiz-adv-x="1398" d="M123 1106h299l276 -715l277 715h299l-432 -1124v-453h-287v453z" />
<glyph unicode="&#x3b4;" horiz-adv-x="1245" d="M72 463q0 246 299 373q-146 143 -146 331q0 99 66 175t168 113.5t219 37.5q110 0 213.5 -40t187.5 -114l-153 -172q-109 95 -248 95q-69 0 -117.5 -23t-48.5 -72q0 -27 8.5 -51.5t21 -43t35.5 -37t42 -30.5t51.5 -27t53.5 -23t57.5 -22t54.5 -22q151 -63 244.5 -180.5 t93.5 -267.5q0 -139 -76.5 -250t-202 -171t-272.5 -60t-272.5 60t-202 171t-76.5 250zM379 463q0 -89 71.5 -142t172.5 -53t172 53t71 142q0 64 -38 112t-103 70q-68 0 -125.5 -8.5t-109.5 -28t-81.5 -56.5t-29.5 -89z" />
<glyph unicode="&#x3b5;" horiz-adv-x="1150" d="M123 348q0 157 151 244q-133 76 -133 219q0 102 59.5 185t155.5 128t207 45q70 0 154.5 -13.5t142.5 -28t152 -40.5l-51 -184q-54 15 -130 23t-127 9t-141 1q-55 0 -95 -36t-40 -89q0 -22 7.5 -40t25 -30t34.5 -21.5t47.5 -14.5t52 -8.5t59.5 -4.5t59 -1.5t61 -0.5v-186 q-51 0 -87 -1.5t-82 -6t-77.5 -15.5t-60 -27.5t-43 -43t-14.5 -62.5q0 -74 56.5 -126t133.5 -52q277 0 381 27l47 -183q-96 -25 -149 -38t-134.5 -26t-144.5 -13q-126 0 -235 51.5t-175.5 146.5t-66.5 213z" />
<glyph unicode="&#x3b6;" horiz-adv-x="1189" d="M123 553q0 223 106.5 413.5t292.5 317.5h-399v189h1005v-189h-194q-155 -37 -275.5 -146t-184.5 -261.5t-64 -323.5q0 -120 72 -206.5t180 -86.5h79q103 0 191.5 -45.5t142 -127t53.5 -179.5q0 -145 -115 -242.5t-272 -97.5v209q44 0 72.5 39t28.5 92q0 48 -29 83.5 t-72 35.5h-79q-145 0 -269 70t-197 191t-73 265z" />
<glyph unicode="&#x3b7;" horiz-adv-x="1251" d="M123 0v1106h287v-78q120 70 252 70q122 0 227.5 -43.5t172 -127t66.5 -190.5v-1208h-286v1208q0 59 -53.5 93t-126.5 34q-78 0 -145 -36t-107 -97v-731h-287z" />
<glyph unicode="&#x3b8;" horiz-adv-x="1157" d="M123 684q0 122 14.5 234t48.5 216.5t85.5 181.5t130 123t176.5 46q83 0 152 -32t118 -89.5t85.5 -132.5t58 -166t32 -185.5t10.5 -195.5q0 -130 -29.5 -249.5t-84.5 -215.5t-143.5 -153.5t-198.5 -57.5q-109 0 -197.5 57.5t-143.5 153.5t-84.5 215.5t-29.5 249.5z M410 801h338q-1 63 -4 112t-9.5 104t-18.5 94t-30 72.5t-45.5 50.5t-62.5 17t-62 -17t-44.5 -50.5t-29.5 -72.5t-18.5 -94t-9.5 -104t-4 -112zM412 567q2 -71 9 -123t24 -101t50.5 -75t82.5 -26t83 26t51 75t24 101t9 123h-333z" />
<glyph unicode="&#x3b9;" horiz-adv-x="894" d="M246 332v774h286v-774q0 -16 5 -29.5t17 -22.5t24 -16t33 -11t36 -6.5t41.5 -3.5t41 -1h42.5v-234q-101 0 -192.5 19t-167.5 57t-121 102t-45 146z" />
<glyph unicode="&#x3ba;" d="M121 0v1106h287v-430l362 430h326l-377 -418l403 -688h-336l-264 487l-114 -125v-362h-287z" />
<glyph unicode="&#x3bb;" horiz-adv-x="1550" d="M123 0l590 1004l-27 65q-32 80 -103 128t-157 48v209q178 0 324.5 -80.5t207.5 -230.5l472 -1143h-304l-282 686l-402 -686h-319z" />
<glyph unicode="&#x3bc;" horiz-adv-x="1497" d="M246 -471v1577h286v-700q31 -74 87.5 -119t130.5 -45q72 0 128 45t87 119v700h286v-1106h-286v66q-99 -58 -215 -58q-119 0 -218 58v-537h-286z" />
<glyph unicode="&#x3bd;" horiz-adv-x="1267" d="M61 1106h299l328 -830q109 82 170.5 203.5t61.5 257.5q0 174 -19 369h287q18 -184 18 -369q0 -262 -146.5 -480t-389.5 -318l-189 81z" />
<glyph unicode="&#x3be;" horiz-adv-x="1251" d="M123 487q0 104 52 189.5t144 144.5q-83 48 -130.5 119.5t-47.5 163.5q0 104 66 180h-84v189h1005v-189h-485q-215 -36 -215 -180q0 -47 27 -81.5t73.5 -53t99 -27t113.5 -8.5v-209q-86 0 -160.5 -27t-122.5 -82.5t-48 -128.5q0 -97 74.5 -162t177.5 -65h79 q103 0 191.5 -45.5t142 -127t53.5 -179.5q0 -145 -115 -242.5t-272 -97.5v209q44 0 72.5 39t28.5 92q0 48 -29 83.5t-72 35.5h-79q-142 0 -265 58t-198.5 164.5t-75.5 237.5z" />
<glyph unicode="&#x3bf;" horiz-adv-x="1251" d="M72 553q0 270 144.5 420.5t399.5 150.5q261 0 405 -150t144 -429q0 -264 -147 -413.5t-400 -149.5q-257 0 -401.5 149.5t-144.5 421.5zM358 553q0 -157 71 -248.5t189 -91.5q117 0 189 91t72 245q0 161 -70.5 252.5t-190.5 91.5q-118 0 -189 -91.5t-71 -248.5z" />
<glyph unicode="&#x3c0;" horiz-adv-x="1519" d="M72 655q0 131 28.5 217.5t92.5 138.5t157.5 73.5t233.5 21.5h864v-232h-205v-874h-287v874h-229v-874h-287v874q-83 0 -110 -53t-27 -166h-231z" />
<glyph unicode="&#x3c1;" horiz-adv-x="1372" d="M123 -471v1024q0 150 76.5 275.5t205.5 197.5t281 72t281 -72t205.5 -197.5t76.5 -275.5t-76.5 -275.5t-205.5 -197.5t-281 -72q-143 0 -276 68v-547h-287zM410 340q118 -98 276 -98q118 0 197.5 92t79.5 219t-79.5 219t-197.5 92t-197 -92t-79 -219v-213z" />
<glyph unicode="&#x3c2;" horiz-adv-x="1251" d="M123 563q0 145 72.5 268.5t196.5 195t270 71.5q156 0 280.5 -90.5t165.5 -237.5l-246 -70q-21 72 -75 118t-125 46q-109 0 -180.5 -89.5t-71.5 -211.5q0 -124 71 -213.5t181 -89.5h79q103 0 191.5 -45.5t142 -127t53.5 -179.5q0 -145 -115 -242.5t-272 -97.5v209 q44 0 72.5 39t28.5 92q0 48 -29 83.5t-72 35.5h-79q-146 0 -270 71.5t-196.5 195t-72.5 269.5z" />
<glyph unicode="&#x3c3;" horiz-adv-x="1433" d="M123 553q0 270 145 420.5t400 150.5q109 0 204 -28q181 38 398 139l102 -221q-114 -53 -260 -86q105 -145 105 -383q0 -264 -147 -413.5t-400 -149.5q-257 0 -402 149.5t-145 421.5zM410 553q0 -157 71 -248.5t189 -91.5q117 0 188.5 91t71.5 245q0 161 -70 252.5 t-190 91.5q-118 0 -189 -91.5t-71 -248.5z" />
<glyph unicode="&#x3c4;" horiz-adv-x="985" d="M123 846v233h715v-233h-215v-514q0 -16 5 -29.5t17 -22.5t24 -16t32.5 -11t35.5 -6.5t41.5 -3.5t41 -1h42.5v-234q-101 0 -192.5 19t-167.5 57t-121 102t-45 146v514h-213z" />
<glyph unicode="&#x3c5;" horiz-adv-x="1251" d="M123 369v737h287v-737q0 -61 58.5 -94t139.5 -33q99 0 166.5 80.5t67.5 189.5q0 302 -37 594h287q36 -284 36 -594q0 -138 -70 -254t-189.5 -183t-260.5 -67q-126 0 -235.5 42.5t-179.5 126.5t-70 192z" />
<glyph unicode="&#x3c6;" horiz-adv-x="1839" d="M123 553q0 187 125 332.5t317 197.5l56 -204q-99 -28 -155 -120t-56 -206q0 -126 102 -201.5t264 -99.5v260q0 114 34 220t94 187.5t149.5 130t193.5 48.5q132 0 241 -76t168.5 -200.5t59.5 -268.5q0 -114 -53 -210.5t-144.5 -162t-207.5 -107.5t-248 -57v-487h-287v487 q-132 15 -248 57t-207.5 107.5t-144.5 162t-53 210.5zM1063 252q162 24 264.5 99.5t102.5 201.5q0 82 -17.5 149.5t-60.5 114.5t-105 47q-53 0 -90.5 -30t-57 -83t-28 -111.5t-8.5 -127.5v-260z" />
<glyph unicode="&#x3c7;" horiz-adv-x="1411" d="M123 -471l426 788l-426 789h311l271 -498l270 498h311l-426 -789l426 -788h-311l-270 498l-271 -498h-311z" />
<glyph unicode="&#x3c8;" horiz-adv-x="1593" d="M123 369v737h287v-737q0 -114 243 -125v1249h287v-1249q244 11 244 125v737h286v-737q0 -87 -43 -153t-119.5 -106.5t-167 -63.5t-200.5 -32v-485h-287v485q-110 9 -200.5 32t-167 63.5t-119.5 106.5t-43 153z" />
<glyph unicode="&#x3c9;" horiz-adv-x="1615" d="M123 616q0 132 56 258.5t153 231.5h252q-174 -188 -174 -490v-53t1 -51.5t2.5 -52.5t4.5 -48.5t8 -46.5t11.5 -39.5t16 -35t21.5 -24.5t27.5 -17.5t34.5 -5.5q129 0 157 184q-28 137 -28 311h286v-67.5t1 -67.5t2.5 -69t4.5 -64t8 -62.5t11.5 -53t16 -46.5t21.5 -33.5 t27.5 -24t34.5 -7.5t34.5 5.5t27.5 17.5t21.5 24.5t16 35t11.5 39.5t8 46.5t4.5 48.5t2.5 52.5t1 51.5v53q0 302 -174 490h252q97 -105 153 -231.5t56 -258.5q0 -117 -27 -225t-77.5 -194t-131 -137.5t-178.5 -51.5q-172 0 -280 154q-99 -154 -262 -154q-98 0 -178.5 51.5 t-131 137.5t-77.5 194t-27 225z" />
<glyph unicode="&#x3d1;" horiz-adv-x="1374" d="M123 369v368h287v-368q0 -31 18.5 -52.5t52 -31.5t67.5 -13.5t79 -3.5q44 0 77.5 3.5t67 13.5t52 31.5t18.5 52.5v430q-96 6 -175 17t-158.5 30t-138.5 48.5t-105.5 70t-70.5 97.5t-24 128q0 112 63.5 203.5t168 142.5t225.5 51q134 0 249.5 -63.5t183.5 -174.5t68 -243 v-127h123v-188l-123 2v-424q0 -115 -72 -205t-185 -136t-244 -46q-98 0 -188.5 27.5t-161 76.5t-112.5 122.5t-42 160.5zM399 1190q0 -174 443 -203v119q0 119 -59 206t-156 87q-93 0 -160.5 -60.5t-67.5 -148.5z" />
<glyph unicode="&#x3d5;" horiz-adv-x="1495" d="M123 553q0 205 137 358.5t344 198.5v383h287v-383q207 -45 344 -198.5t137 -358.5t-137 -358.5t-344 -198.5v-467h-287v467q-207 45 -344 198.5t-137 358.5zM410 553q0 -88 53.5 -156.5t140.5 -101.5v516q-87 -33 -140.5 -101.5t-53.5 -156.5zM891 295q87 33 140.5 101.5 t53.5 156.5t-53.5 156.5t-140.5 101.5v-516z" />
<glyph unicode="&#x3d6;" horiz-adv-x="1615" d="M123 616q0 132 56 258.5t153 231.5h252q-174 -188 -174 -490v-53t1 -51.5t2.5 -52.5t4.5 -48.5t8 -46.5t11.5 -39.5t16 -35t21.5 -24.5t27.5 -17.5t34.5 -5.5q129 0 157 184q-28 137 -28 311h286v-67.5t1 -67.5t2.5 -69t4.5 -64t8 -62.5t11.5 -53t16 -46.5t21.5 -33.5 t27.5 -24t34.5 -7.5t34.5 5.5t27.5 17.5t21.5 24.5t16 35t11.5 39.5t8 46.5t4.5 48.5t2.5 52.5t1 51.5v53q0 85 -2.5 152t-10.5 148t-21.5 141.5t-38.5 120.5t-59 98t-84 62t-113 24q-251 0 -482 -137l-88 149q253 150 570 150q148 0 267.5 -77.5t194 -206.5t114.5 -289.5 t40 -334.5q0 -117 -27 -225t-77.5 -194t-131 -137.5t-178.5 -51.5q-172 0 -280 154q-99 -154 -262 -154q-98 0 -178.5 51.5t-131 137.5t-77.5 194t-27 225z" />
<glyph unicode="&#x3f5;" d="M70 545q0 281 136.5 430t385.5 149q168 0 285.5 -77.5t164.5 -217.5h-303q-50 64 -149 64q-195 0 -228 -236h398v-208h-398q19 -115 78 -175.5t150 -60.5q100 0 151 63h303q-48 -135 -168.5 -214.5t-287.5 -79.5q-247 0 -382.5 145.5t-135.5 417.5z" />
<glyph unicode="&#x400;" horiz-adv-x="1452" d="M168 0v1493h1079v-256h-772v-338h715v-256h-715v-387h809v-256h-1116zM377 1948h258l143 -308h-143z" />
<glyph unicode="&#x401;" horiz-adv-x="1452" d="M168 0v1493h1079v-256h-772v-338h715v-256h-715v-387h809v-256h-1116zM410 1638v250h225v-250h-225zM791 1638v250h225v-250h-225z" />
<glyph unicode="&#x402;" horiz-adv-x="1574" d="M29 1237v256h1032v-256h-354v-205h260q225 0 366.5 -129t141.5 -325v-476q0 -196 -141.5 -325t-366.5 -129h-76v256h51q94 0 159.5 57t65.5 154v450q0 97 -65.5 154t-159.5 57h-235v-776h-308v1237h-370z" />
<glyph unicode="&#x403;" horiz-adv-x="1251" d="M168 0v1493h1049v-256h-742v-1237h-307zM621 1640l143 308h258l-258 -308h-143z" />
<glyph unicode="&#x404;" horiz-adv-x="1478" d="M90 733q0 362 184 573.5t500 211.5q167 0 301.5 -61t220.5 -175q47 -63 70 -130.5t31 -164.5h-293q-13 60 -28 94.5t-40 65.5q-86 108 -252 108q-149 0 -249.5 -95t-131.5 -267h596v-256h-598q19 -203 115.5 -314.5t257.5 -111.5q143 0 230 78.5t100 220.5h299 q-13 -256 -185.5 -406.5t-451.5 -150.5q-312 0 -494 210.5t-182 569.5z" />
<glyph unicode="&#x405;" horiz-adv-x="1366" d="M66 446h299q8 -120 93.5 -183.5t241.5 -63.5q140 0 220.5 53.5t80.5 146.5q0 91 -63 139.5t-217 77.5l-209 41q-227 43 -323.5 135.5t-96.5 266.5q0 218 148 338.5t417 120.5q329 0 482 -170q55 -61 79.5 -134t24.5 -176h-287q-8 114 -87.5 174t-225.5 60 q-118 0 -188 -50t-70 -135q0 -81 59 -121.5t224 -72.5l233 -45q207 -40 301 -137.5t94 -274.5q0 -227 -161.5 -355t-450.5 -128q-286 0 -445.5 127t-172.5 366z" />
<glyph unicode="&#x406;" horiz-adv-x="569" d="M129 0v1493h307v-1493h-307z" />
<glyph unicode="&#x407;" horiz-adv-x="569" d="M-18 1638v250h225v-250h-225zM129 0v1493h307v-1493h-307zM362 1638v250h226v-250h-226z" />
<glyph unicode="&#x408;" d="M49 406v147h307v-143q0 -103 39 -149t127 -46q80 0 123 45t43 129v1104h307v-1104q0 -209 -125 -322.5t-354 -113.5q-211 0 -342 119q-66 62 -95.5 140t-29.5 194z" />
<glyph unicode="&#x409;" horiz-adv-x="2265" d="M94 0v297q54 -1 89.5 39.5t56 126.5t28.5 200.5t8 280.5v549h1070v-532h383q205 0 327.5 -135.5t122.5 -362.5q0 -224 -124 -343.5t-357 -119.5h-660v1237h-454v-389q0 -86 -4 -161.5t-17 -164.5t-35 -160.5t-59.5 -141t-87.5 -116.5t-123.5 -75.5t-163.5 -28.5z M1346 256h286q123 0 181.5 55t58.5 170q0 114 -58.5 169t-181.5 55h-286v-449z" />
<glyph unicode="&#x40a;" horiz-adv-x="2279" d="M139 0v1493h307v-537h590v537h310v-532h383q205 0 327.5 -135.5t122.5 -362.5q0 -224 -124 -343.5t-357 -119.5h-660v700h-592v-700h-307zM1346 256h286q123 0 181.5 55t58.5 170q0 114 -58.5 169t-181.5 55h-286v-449z" />
<glyph unicode="&#x40b;" horiz-adv-x="1574" d="M29 1237v256h1032v-256h-354l-2 -205h262q225 0 366.5 -129t141.5 -325v-578h-308v565q0 97 -65.5 154t-159.5 57h-235v-776h-308v1237h-370z" />
<glyph unicode="&#x40c;" horiz-adv-x="1536" d="M168 0v1493h307v-571l584 571h362l-749 -719l813 -774h-410l-600 584v-584h-307zM723 1640l143 308h258l-258 -308h-143z" />
<glyph unicode="&#x40d;" horiz-adv-x="1550" d="M168 0v1493h307v-1016l592 1016h315v-1493h-307v1032l-600 -1032h-307zM446 1948h259l143 -308h-143z" />
<glyph unicode="&#x40e;" horiz-adv-x="1470" d="M31 1493h334l352 -707l352 707h356l-753 -1493h-357l234 463zM459 1913v20h114q18 -135 156 -135q68 0 106 32.5t50 102.5h114v-22q0 -115 -78 -193t-192 -78q-117 0 -193.5 78t-76.5 195z" />
<glyph unicode="&#x40f;" horiz-adv-x="1478" d="M139 0v1493h307v-1237h594v1237h308v-1493h-471v-307h-267v307h-471z" />
<glyph unicode="&#x410;" horiz-adv-x="1478" d="M53 0l531 1493h340l516 -1493h-310l-102 301h-561l-100 -301h-314zM553 557h389l-194 584z" />
<glyph unicode="&#x411;" horiz-adv-x="1478" d="M168 0v1493h1049v-256h-742v-289h334q131 0 232.5 -31t161 -79t97 -114.5t51 -129t13.5 -131.5q0 -93 -41 -196t-106 -158q-67 -57 -157.5 -83t-219.5 -26h-672zM475 256h367q109 0 168 60t59 157q0 99 -59 159t-168 60h-367v-436z" />
<glyph unicode="&#x412;" horiz-adv-x="1478" d="M168 0v1493h666q120 0 203 -26t149 -83q63 -55 99 -131t36 -153q0 -100 -53 -183.5t-152 -123.5q119 -35 183.5 -139t64.5 -224q0 -90 -40 -177t-107 -144t-157.5 -83t-219.5 -26h-672zM475 256h367q112 0 169.5 49.5t57.5 143.5q0 95 -57.5 144.5t-169.5 49.5h-367v-387 zM475 899h334q106 0 161.5 43t55.5 125q0 83 -55.5 126.5t-161.5 43.5h-334v-338z" />
<glyph unicode="&#x413;" horiz-adv-x="1251" d="M168 0v1493h1049v-256h-742v-1237h-307z" />
<glyph unicode="&#x414;" horiz-adv-x="1843" d="M72 221h213q82 0 134 203t52 520v549h1065v-1272h236v-528h-267v307h-1167v-307h-266v528zM682 256h547v981h-451v-389q0 -391 -96 -592z" />
<glyph unicode="&#x415;" horiz-adv-x="1452" d="M168 0v1493h1079v-256h-772v-338h715v-256h-715v-387h809v-256h-1116z" />
<glyph unicode="&#x416;" horiz-adv-x="2238" d="M45 0l731 774l-641 719h336l502 -571v571h307v-571l502 571h336l-641 -719l731 -774h-377l-551 584v-584h-307v584l-551 -584h-377z" />
<glyph unicode="&#x417;" horiz-adv-x="1376" d="M66 446h299q8 -120 93.5 -183.5t241.5 -63.5q140 0 220.5 53.5t80.5 146.5q0 101 -67 166.5t-213 65.5h-209v246h156q282 0 282 210q0 85 -70 135t-188 50q-146 0 -225.5 -60t-87.5 -174h-287q0 103 24.5 175.5t80.5 134.5q153 170 481 170q269 0 417 -120.5t148 -338.5 q0 -190 -129 -287q95 -52 138.5 -132.5t43.5 -203.5q0 -227 -161.5 -355t-450.5 -128q-286 0 -445.5 127t-172.5 366z" />
<glyph unicode="&#x418;" horiz-adv-x="1550" d="M168 0v1493h307v-1016l592 1016h315v-1493h-307v1032l-600 -1032h-307z" />
<glyph unicode="&#x419;" horiz-adv-x="1550" d="M168 0v1493h307v-1016l592 1016h315v-1493h-307v1032l-600 -1032h-307zM498 1878v20h114q18 -135 158 -135q67 0 103.5 32t50.5 103h114v-22q0 -116 -77 -193t-193 -77t-193 77.5t-77 194.5z" />
<glyph unicode="&#x41a;" horiz-adv-x="1536" d="M168 0v1493h307v-571l584 571h362l-749 -719l813 -774h-410l-600 584v-584h-307z" />
<glyph unicode="&#x41b;" horiz-adv-x="1492" d="M74 -25v297q54 -1 89.5 35t56 118.5t28.5 198t8 291.5v578h1069v-1493h-307v1237h-455v-418q0 -87 -4 -161.5t-17 -163.5t-34.5 -160t-59 -140t-87.5 -115.5t-123.5 -75t-163.5 -28.5z" />
<glyph unicode="&#x41c;" horiz-adv-x="1789" d="M168 0v1493h459l270 -1188l262 1188h463v-1493h-307v1163l-264 -1163h-308l-268 1163v-1163h-307z" />
<glyph unicode="&#x41d;" horiz-adv-x="1542" d="M168 0v1493h307v-559h590v559h309v-1493h-307v678h-592v-678h-307z" />
<glyph unicode="&#x41e;" horiz-adv-x="1593" d="M82 735q0 167 54.5 318t154.5 258q192 207 508 207q320 0 512 -207q100 -108 154.5 -260t54.5 -326q0 -158 -56 -310t-153 -255q-192 -207 -510 -207t-510 207q-100 106 -154.5 256.5t-54.5 318.5zM389 735q0 -235 113 -377.5t299 -142.5q184 0 297.5 141.5t113.5 370.5 q0 243 -111 385.5t-300 142.5q-186 0 -299 -142.5t-113 -377.5z" />
<glyph unicode="&#x41f;" horiz-adv-x="1542" d="M168 0v1493h1206v-1493h-307v1237h-592v-1237h-307z" />
<glyph unicode="&#x420;" horiz-adv-x="1374" d="M168 0v1493h659q233 0 357.5 -119.5t124.5 -343.5q0 -227 -122.5 -362.5t-328.5 -135.5h-383v-532h-307zM475 788h287q123 0 181 55t58 169q0 116 -58 170.5t-181 54.5h-287v-449z" />
<glyph unicode="&#x421;" horiz-adv-x="1478" d="M90 733q0 362 184 573.5t500 211.5q167 0 301.5 -61t220.5 -175q47 -63 70 -130.5t31 -164.5h-293q-13 60 -28 94.5t-40 65.5q-86 108 -252 108q-182 0 -284.5 -139.5t-102.5 -386.5q0 -245 99.5 -381.5t277.5 -136.5q143 0 230 78.5t100 220.5h299 q-13 -256 -185.5 -406.5t-451.5 -150.5q-312 0 -494 210.5t-182 569.5z" />
<glyph unicode="&#x422;" horiz-adv-x="1251" d="M29 1237v256h1196v-256h-437v-1237h-307v1237h-452z" />
<glyph unicode="&#x423;" horiz-adv-x="1470" d="M31 1493h334l352 -707l352 707h356l-753 -1493h-357l234 463z" />
<glyph unicode="&#x424;" horiz-adv-x="1826" d="M61 766q0 112 28.5 201t68.5 145t107.5 96t119 58.5t131.5 28.5t117 11t102 1h9h7.5h8.5v186h307v-186q159 0 232 -9q466 -61 466 -532q0 -120 -28.5 -215.5t-75.5 -154t-108 -102.5t-125.5 -61t-128 -30t-116.5 -10t-90 0h-26v-193h-307v193q-129 0 -161 2 q-418 30 -512 364q-26 93 -26 207zM336 758q0 -79 14.5 -141t39.5 -100t58 -66.5t69.5 -40t74.5 -19.5t73 -6.5t66 0.5h29v721h-15h-48t-54 -3t-60.5 -9t-59.5 -18t-58.5 -28.5t-50 -43.5t-42 -60.5t-26 -81t-10.5 -104.5zM1067 385h29q31 1 66 -0.5t73 6.5t74.5 19.5 t69.5 40t58 66.5t39.5 100t14.5 141q0 72 -17 129.5t-41 93t-64.5 61.5t-71.5 38t-80 18.5t-71.5 7t-63.5 0.5h-15v-721z" />
<glyph unicode="&#x425;" horiz-adv-x="1366" d="M45 0l471 752l-455 741h365l270 -463l267 463h356l-440 -731l460 -762h-350l-297 494l-291 -494h-356z" />
<glyph unicode="&#x426;" horiz-adv-x="1671" d="M168 0v1493h307v-1237h592v1237h307v-1272h225v-528h-266v307h-1165z" />
<glyph unicode="&#x427;" horiz-adv-x="1402" d="M139 915v578h307v-565q0 -97 66 -154t160 -57h297v776h309v-1493h-307v461h-324q-225 0 -366.5 129t-141.5 325z" />
<glyph unicode="&#x428;" horiz-adv-x="2164" d="M139 0v1493h307v-1237h449v1237h307v-1237h471v1237h307v-1493h-1841z" />
<glyph unicode="&#x429;" horiz-adv-x="2422" d="M139 0v1493h307v-1237h469v1237h308v-1237h471v1237h307v-1272h246v-528h-277v307h-1831z" />
<glyph unicode="&#x42a;" horiz-adv-x="1705" d="M29 1237v256h778v-532h383q205 0 327.5 -135.5t122.5 -362.5q0 -224 -124 -343.5t-357 -119.5h-659v1237h-471zM807 256h287q123 0 181 54.5t58 170.5q0 114 -58 169t-181 55h-287v-449z" />
<glyph unicode="&#x42b;" horiz-adv-x="1943" d="M139 0v1493h307v-532h383q206 0 328.5 -135.5t122.5 -362.5q0 -224 -124 -343.5t-357 -119.5h-660zM446 256h287q123 0 181.5 55t58.5 170q0 114 -58.5 169t-181.5 55h-287v-449zM1503 0v1493h307v-1493h-307z" />
<glyph unicode="&#x42c;" horiz-adv-x="1406" d="M156 0v1493h307v-532h383q205 0 327.5 -135.5t122.5 -362.5q0 -224 -124 -343.5t-357 -119.5h-659zM463 256h287q123 0 181 54.5t58 170.5q0 114 -58 169t-181 55h-287v-449z" />
<glyph unicode="&#x42d;" horiz-adv-x="1478" d="M90 510h299q13 -142 100 -220.5t230 -78.5q161 0 257.5 111.5t115.5 314.5h-598v256h596q-31 172 -131.5 267t-249.5 95q-167 0 -252 -108q-25 -31 -40 -65.5t-28 -94.5h-293q8 97 31 164.5t70 130.5q86 114 220.5 175t301.5 61q316 0 500 -211.5t184 -573.5 q0 -359 -182 -569.5t-494 -210.5q-279 0 -451.5 150.5t-185.5 406.5z" />
<glyph unicode="&#x42e;" horiz-adv-x="2250" d="M139 0v1493h307v-600h285q41 248 197 418q97 105 215 156t272 51q159 0 275.5 -50t216.5 -157q100 -108 154.5 -260t54.5 -326q0 -158 -56 -310t-153 -255q-98 -106 -215.5 -156.5t-274.5 -50.5t-274 50.5t-215 156.5q-85 91 -137 214t-66 263h-279v-637h-307zM1026 735 q0 -238 103.5 -379t287.5 -141q182 0 286.5 140t104.5 372q0 246 -102 387t-289 141q-184 0 -287.5 -141t-103.5 -379z" />
<glyph unicode="&#x42f;" horiz-adv-x="1429" d="M45 0l451 543q-144 28 -242 156t-98 331q0 224 124 343.5t357 119.5h659v-1493h-307v532h-125l-452 -532h-367zM463 1012q0 -114 58 -169t181 -55h287v449h-287q-123 0 -181 -54.5t-58 -170.5z" />
<glyph unicode="&#x430;" d="M57 285q0 148 81.5 233t244.5 115l115 20q22 4 50.5 9t39 7t26 5t21 4.5t14.5 4.5t14.5 5.5t14.5 7.5q49 25 49 86q0 111 -166 111q-105 0 -148.5 -33t-54.5 -119h-276q27 383 473 383q224 0 338.5 -85.5t114.5 -254.5v-614q0 -43 13.5 -71.5t51.5 -63.5v-35h-311 q-20 25 -26.5 46.5t-6.5 64.5q-152 -158 -336 -158q-74 0 -142.5 27.5t-115.5 76.5q-78 84 -78 228zM344 317q0 -61 42 -97t114 -36q109 0 168 67.5t59 192.5v78q-27 -13 -47 -19t-74 -16l-98 -18q-87 -17 -125.5 -52.5t-38.5 -99.5z" />
<glyph unicode="&#x431;" horiz-adv-x="1241" d="M102 598q0 98 4.5 173t21.5 170.5t46.5 168t84 143.5t130.5 119q64 39 176.5 68t225.5 43q27 3 48 15.5t31.5 27.5t17 29t8.5 24l1 10l213 2q0 -57 -2 -88.5t-18 -73.5t-48 -65q-57 -41 -130.5 -61t-133 -23t-132.5 -18.5t-128 -49.5q-78 -48 -124.5 -116.5t-47.5 -149.5 q90 178 346 178q101 0 195 -48t151 -130q56 -80 87.5 -187.5t31.5 -219.5q0 -170 -59 -300.5t-181 -208t-292 -77.5q-129 0 -222.5 31.5t-163 104.5t-103.5 199.5t-34 309.5zM387 543q0 -158 66.5 -254t175.5 -96q106 0 173.5 96.5t67.5 247.5q0 154 -67.5 251t-173.5 97 q-107 0 -174.5 -95.5t-67.5 -246.5z" />
<glyph unicode="&#x432;" horiz-adv-x="1171" d="M123 0v1106h545q90 0 151.5 -18.5t110.5 -61.5q46 -40 73 -97t27 -114q0 -73 -42 -140.5t-109 -88.5q88 -26 135 -103t47 -166q0 -67 -29.5 -131.5t-79.5 -105.5q-95 -80 -278 -80h-551zM410 225h204q85 0 123.5 27.5t38.5 95.5q0 67 -36 88t-126 21h-204v-232zM410 682 h192q83 0 117.5 19.5t34.5 76.5q0 59 -35 81t-117 22h-192v-199z" />
<glyph unicode="&#x433;" horiz-adv-x="929" d="M123 0v1106h713v-232h-426v-874h-287z" />
<glyph unicode="&#x434;" horiz-adv-x="1402" d="M47 207h127q48 0 85 90t55 222t18 276v311h856v-899h168v-463h-226v256h-858v-256h-225v463zM539 231h362v643h-283v-104q0 -359 -79 -539z" />
<glyph unicode="&#x435;" d="M45 524q0 278 137 439t375 161q167 0 293.5 -85t181.5 -236q43 -124 43 -291q0 -24 -2 -49h-741q5 -141 41 -195q65 -96 188 -96q78 0 135.5 36.5t83.5 102.5h283q-47 -163 -186.5 -260.5t-325.5 -97.5q-235 0 -370.5 153t-135.5 418zM336 653h440q-8 104 -45 160 q-31 43 -77.5 67.5t-100.5 24.5q-190 0 -217 -252z" />
<glyph unicode="&#x436;" horiz-adv-x="1656" d="M33 0l436 606l-363 500h304l270 -387v387h287v-387l270 387h303l-362 -500l436 -606h-367l-280 406v-406h-287v406l-281 -406h-366z" />
<glyph unicode="&#x437;" horiz-adv-x="1118" d="M59 322h281q9 -44 20.5 -66t34.5 -39q58 -39 170 -39q100 0 156.5 29t56.5 80v22.5t-3 24t-9 27.5t-18 24t-29.5 21.5t-45 13.5t-63.5 6h-188v225h192q21 0 39 3t31 7.5t23.5 13t17 14.5t11.5 18t7.5 18.5t3.5 20.5t1 18.5v18v14.5q0 46 -45.5 74t-120.5 28 q-204 0 -207 -149h-277q3 175 131 274.5t351 99.5q211 0 332.5 -99t121.5 -269q0 -114 -61 -181q-5 -5 -16 -11.5t-13 -8.5q62 -39 91.5 -92.5t29.5 -134.5t-34.5 -154t-96.5 -123q-122 -98 -352 -98q-252 0 -384.5 93.5t-138.5 275.5z" />
<glyph unicode="&#x438;" horiz-adv-x="1259" d="M123 0v1106h287v-692l399 692h328v-1106h-287v692l-399 -692h-328z" />
<glyph unicode="&#x439;" horiz-adv-x="1259" d="M123 0v1106h287v-692l399 692h328v-1106h-287v692l-399 -692h-328zM360 1460v21h115q18 -135 158 -135q68 0 104.5 32.5t48.5 102.5h115v-23q0 -116 -77.5 -193t-192.5 -77q-116 0 -193.5 77.5t-77.5 194.5z" />
<glyph unicode="&#x43a;" horiz-adv-x="1173" d="M123 0v1106h287v-387l331 387h303l-438 -500l518 -606h-372l-342 406v-406h-287z" />
<glyph unicode="&#x43b;" horiz-adv-x="1181" d="M59 -20v276q28 0 50 10.5t37.5 33t27 47t18.5 65.5t11.5 75t6.5 89.5t2.5 94.5t0.5 103v332h846v-1106h-287v874h-272v-124q0 -407 -103.5 -588.5t-337.5 -181.5z" />
<glyph unicode="&#x43c;" horiz-adv-x="1363" d="M123 0v1106h358l201 -670l201 670h358v-1106h-287v608l-198 -608h-148l-198 608v-608h-287z" />
<glyph unicode="&#x43d;" horiz-adv-x="1234" d="M123 0v1106h287v-451h415v451h287v-1106h-287v424h-415v-424h-287z" />
<glyph unicode="&#x43e;" horiz-adv-x="1251" d="M72 539q0 272 145.5 428.5t398.5 156.5q260 0 404.5 -156.5t144.5 -437.5q0 -266 -147.5 -421.5t-399.5 -155.5q-255 0 -400.5 156t-145.5 430zM358 539q0 -159 71.5 -257t188.5 -98q115 0 188 98t73 253q0 163 -71 260.5t-190 97.5q-117 0 -188.5 -97.5t-71.5 -256.5z " />
<glyph unicode="&#x43f;" horiz-adv-x="1234" d="M123 0v1106h989v-1106h-287v874h-415v-874h-287z" />
<glyph unicode="&#x440;" horiz-adv-x="1251" d="M119 -446v1552h287v-164q104 182 307 182q100 0 194 -48t150 -126q56 -77 87.5 -186.5t31.5 -226.5q0 -252 -132 -419t-331 -167q-205 0 -307 180v-577h-287zM406 537q0 -155 67 -251t174 -96q106 0 174 96t68 246q0 158 -66.5 255.5t-175.5 97.5q-107 0 -174 -96.5 t-67 -251.5z" />
<glyph unicode="&#x441;" d="M70 530q0 282 137 438t385 156q207 0 334.5 -115t142.5 -317h-274q-25 109 -71.5 155t-133.5 46q-127 0 -178 -94q-56 -106 -56 -269q0 -161 62.5 -253.5t171.5 -92.5q83 0 130 46t75 153h274q-20 -198 -150 -314t-331 -116q-246 0 -382 151.5t-136 425.5z" />
<glyph unicode="&#x442;" horiz-adv-x="929" d="M43 874v232h840v-232h-277v-874h-287v874h-276z" />
<glyph unicode="&#x443;" d="M18 1106h316l244 -805l229 805h295l-445 -1309q-34 -98 -71 -141.5t-101 -69.5q-86 -35 -206 -35q-39 0 -103 9v215q48 -13 76 -13q75 0 124.5 52.5t49.5 130.5v8v2z" />
<glyph unicode="&#x444;" horiz-adv-x="1959" d="M57 537q0 117 31.5 226.5t87.5 186.5q56 78 150 126t194 48q203 0 307 -182v531h287v-531q104 182 307 182q100 0 194 -48t150 -126q56 -77 87.5 -186.5t31.5 -226.5q0 -252 -132 -419t-331 -167q-205 0 -307 180v-577h-287v577q-102 -180 -307 -180q-199 0 -331 167 t-132 419zM344 532q0 -150 68 -246t174 -96q107 0 174 96t67 251t-67 251.5t-174 96.5q-109 0 -175.5 -97.5t-66.5 -255.5zM1114 537q0 -155 67.5 -251t174.5 -96q106 0 173.5 95.5t67.5 246.5q0 158 -66 255.5t-175 97.5q-107 0 -174.5 -96.5t-67.5 -251.5z" />
<glyph unicode="&#x445;" d="M33 0l368 557l-360 549h344l180 -334l178 334h344l-360 -549l369 -557h-344l-187 344l-188 -344h-344z" />
<glyph unicode="&#x446;" horiz-adv-x="1335" d="M123 0v1106h287v-875h415v875h287v-899h176v-463h-225v256h-940z" />
<glyph unicode="&#x447;" horiz-adv-x="1183" d="M123 707v399h287v-397q0 -71 43 -107.5t116 -36.5h205v541h287v-1106h-287v334h-201q-70 0 -133.5 12.5t-122 41t-101 70.5t-68 106t-25.5 143z" />
<glyph unicode="&#x448;" horiz-adv-x="1814" d="M123 0v1106h287v-875h350v875h287v-875h358v875h287v-1106h-1569z" />
<glyph unicode="&#x449;" horiz-adv-x="1982" d="M123 0v1106h287v-875h350v875h287v-875h356v875h287v-899h245v-463h-225v256h-1587z" />
<glyph unicode="&#x44a;" horiz-adv-x="1419" d="M41 874v232h637v-371h303q174 0 275.5 -109.5t101.5 -281.5q0 -70 -30 -147.5t-79 -116.5q-95 -80 -278 -80h-580v874h-350zM678 225h223q83 0 127.5 37.5t44.5 106.5t-48.5 105t-133.5 36h-213v-285z" />
<glyph unicode="&#x44b;" horiz-adv-x="1660" d="M123 0v1106h287v-371h241q217 0 328 -107t111 -284q0 -70 -30 -147.5t-79 -116.5q-95 -80 -279 -80h-579zM410 225h223q83 0 127.5 37.5t44.5 106.5t-48.5 105t-133.5 36h-213v-285zM1184 0v1106h286v-1106h-286z" />
<glyph unicode="&#x44c;" horiz-adv-x="1150" d="M123 0v1106h287v-371h276q197 0 300.5 -90t103.5 -272q0 -168 -97.5 -270.5t-290.5 -102.5h-579zM410 225h223q83 0 127.5 37.5t44.5 106.5t-48.5 105t-133.5 36h-213v-285z" />
<glyph unicode="&#x44d;" horiz-adv-x="1155" d="M70 383h274q28 -107 75 -153t130 -46q89 0 147.5 63t77.5 177h-358v231h356q-16 87 -45 144q-51 94 -178 94q-87 0 -133.5 -46t-71.5 -155h-274q15 202 142.5 317t334.5 115q248 0 385 -156t137 -438q0 -274 -136 -425.5t-382 -151.5q-201 0 -331 116t-150 314z" />
<glyph unicode="&#x44e;" horiz-adv-x="1818" d="M123 0v1106h287v-451h168q31 223 163 346t353 123q257 0 392.5 -155t135.5 -439q0 -268 -138 -422.5t-388 -154.5q-224 0 -356 123t-162 348h-168v-424h-287zM856 539q0 -162 62.5 -258.5t177.5 -96.5q113 0 176 96t63 255q0 166 -61.5 262t-177.5 96q-115 0 -177.5 -96 t-62.5 -258z" />
<glyph unicode="&#x44f;" horiz-adv-x="1220" d="M51 0l318 446q-125 34 -195 128.5t-70 213.5q0 67 29.5 132t79.5 106q95 80 279 80h595v-1106h-286v424h-90l-293 -424h-367zM389 762q0 -67 37 -90t125 -23h250v232h-250q-86 0 -124 -26t-38 -93z" />
<glyph unicode="&#x450;" d="M45 524q0 278 137 439t375 161q167 0 293.5 -85t181.5 -236q43 -124 43 -291q0 -24 -2 -49h-741q5 -141 41 -195q65 -96 188 -96q78 0 135.5 36.5t83.5 102.5h283q-47 -163 -186.5 -260.5t-325.5 -97.5q-235 0 -370.5 153t-135.5 418zM227 1554h258l144 -307h-144z M336 653h440q-8 104 -45 160q-31 43 -77.5 67.5t-100.5 24.5q-190 0 -217 -252z" />
<glyph unicode="&#x451;" d="M45 524q0 278 137 439t375 161q167 0 293.5 -85t181.5 -236q43 -124 43 -291q0 -24 -2 -49h-741q5 -141 41 -195q65 -96 188 -96q78 0 135.5 36.5t83.5 102.5h283q-47 -163 -186.5 -260.5t-325.5 -97.5q-235 0 -370.5 153t-135.5 418zM270 1272v250h226v-250h-226z M336 653h440q-8 104 -45 160q-31 43 -77.5 67.5t-100.5 24.5q-190 0 -217 -252zM651 1272v250h226v-250h-226z" />
<glyph unicode="&#x452;" horiz-adv-x="1251" d="M25 1204v162h112v127h287v-127h315v-162h-315v-317q118 178 324 178q147 0 247 -84q113 -94 113 -299v-682q0 -205 -113 -299q-100 -84 -247 -84h-103v244q94 0 143 67q19 28 26 56.5t7 81.5v550q0 53 -7 81.5t-26 56.5q-49 67 -143 67q-97 0 -159 -61t-62 -156v-604 h-287v1204h-112z" />
<glyph unicode="&#x453;" horiz-adv-x="929" d="M123 0v1106h713v-232h-426v-874h-287zM408 1247l143 307h258l-258 -307h-143z" />
<glyph unicode="&#x454;" d="M70 530q0 282 137 438t385 156q207 0 334.5 -115t142.5 -317h-274q-25 109 -71.5 155t-133.5 46q-127 0 -178 -94q-29 -57 -45 -144h356v-231h-358q19 -114 77.5 -177t147.5 -63q83 0 130 46t75 153h274q-20 -198 -150 -314t-331 -116q-246 0 -382 151.5t-136 425.5z" />
<glyph unicode="&#x455;" d="M59 322h281q9 -44 20.5 -66t34.5 -39q58 -39 170 -39q100 0 156.5 29t56.5 80q0 34 -21 53.5t-75 36.5l-342 106q-79 26 -115 44.5t-65 47.5q-62 68 -62 181q0 170 122 269t333 99q223 0 350.5 -99.5t130.5 -274.5h-276q-3 149 -207 149q-75 0 -120.5 -28t-45.5 -74 q0 -33 20 -50t80 -36l363 -105q217 -64 217 -278q0 -81 -34.5 -154t-96.5 -123q-122 -98 -352 -98q-252 0 -384.5 93.5t-138.5 275.5z" />
<glyph unicode="&#x456;" horiz-adv-x="569" d="M137 0v1106h287v-1106h-287zM137 1237v256h287v-256h-287z" />
<glyph unicode="&#x457;" horiz-adv-x="569" d="M-18 1272v250h225v-250h-225zM137 0v1106h287v-1106h-287zM362 1272v250h226v-250h-226z" />
<glyph unicode="&#x458;" horiz-adv-x="569" d="M8 -207q27 -8 51 -8q46 0 65 19.5t19 66.5v1235h287v-1299q0 -135 -59 -194t-193 -59q-75 0 -170 10v229zM143 1237v256h287v-256h-287z" />
<glyph unicode="&#x459;" horiz-adv-x="1890" d="M59 0v276q28 0 50 10.5t37.5 33t27 47t18.5 66t11.5 75.5t6.5 89.5t2.5 94.5t0.5 103v311h899v-371h277q197 0 300 -90t103 -272q0 -168 -97 -270.5t-290 -102.5h-580v874h-325v-104q0 -407 -103.5 -588.5t-337.5 -181.5zM1112 225h223q83 0 127.5 37.5t44.5 106.5 t-48.5 105t-133.5 36h-213v-285z" />
<glyph unicode="&#x45a;" horiz-adv-x="1849" d="M129 0v1106h287v-371h415v371h287v-371h277q197 0 300 -90t103 -272q0 -168 -97 -270.5t-290 -102.5h-580v504h-415v-504h-287zM1118 225h223q83 0 127.5 37.5t44.5 106.5t-48.5 105t-133.5 36h-213v-285z" />
<glyph unicode="&#x45b;" horiz-adv-x="1251" d="M25 1204v162h112v127h287v-127h315v-162h-315v-317q118 178 324 178q147 0 247 -84q113 -94 113 -299v-682h-287v616q0 53 -7 81.5t-26 56.5q-49 67 -143 67q-97 0 -159 -61t-62 -156v-604h-287v1204h-112z" />
<glyph unicode="&#x45c;" horiz-adv-x="1173" d="M123 0v1106h287v-387l331 387h303l-438 -500l518 -606h-372l-342 406v-406h-287zM512 1247l143 307h258l-258 -307h-143z" />
<glyph unicode="&#x45d;" horiz-adv-x="1259" d="M123 0v1106h287v-692l399 692h328v-1106h-287v692l-399 -692h-328zM299 1554h258l143 -307h-143z" />
<glyph unicode="&#x45e;" d="M18 1106h316l244 -805l229 805h295l-445 -1309q-34 -98 -71 -141.5t-101 -69.5q-86 -35 -206 -35q-39 0 -103 9v215q48 -13 76 -13q75 0 124.5 52.5t49.5 130.5v8v2zM291 1520v20h115q18 -135 155 -135q68 0 106 32.5t50 102.5h114v-22q0 -115 -78 -193t-192 -78 q-117 0 -193.5 78t-76.5 195z" />
<glyph unicode="&#x45f;" horiz-adv-x="1245" d="M123 0v1106h287v-875h417v875h287v-1106h-383v-256h-225v256h-383z" />
<glyph unicode="&#x48c;" horiz-adv-x="1406" d="M12 1137v161h144v195h307v-195h162v-161h-162v-176h383q205 0 327.5 -135.5t122.5 -362.5q0 -224 -124 -343.5t-357 -119.5h-659v1137h-144zM463 256h287q123 0 181 54.5t58 170.5q0 114 -58 169t-181 55h-287v-449z" />
<glyph unicode="&#x48d;" horiz-adv-x="1150" d="M-41 803v162h164v141h287v-141h161v-162h-161v-121h237q222 0 338 -95t121 -270q0 -67 -29.5 -131.5t-79.5 -105.5q-95 -80 -278 -80h-596v803h-164zM410 225h249q85 0 123.5 27.5t38.5 95.5q0 67 -36 88t-126 21h-249v-232z" />
<glyph unicode="&#x48e;" horiz-adv-x="1366" d="M156 0v1493h659q233 0 357 -119.5t124 -343.5q0 -228 -125 -366l97 -97l-115 -114l-117 116q-81 -37 -190 -37h-383v-532h-307zM463 788h287q18 0 63 5l-92 92l115 114l122 -122q31 54 31 135q0 116 -58 170.5t-181 54.5h-287v-449z" />
<glyph unicode="&#x48f;" horiz-adv-x="1251" d="M119 -446v1552h287v-164q104 182 307 182q100 0 194 -48t150 -126q56 -77 87.5 -186.5t31.5 -226.5q0 -244 -123 -408l121 -121l-115 -114l-123 122q-105 -65 -223 -65q-205 0 -307 180v-577h-287zM406 537q0 -155 67 -251t174 -96q44 0 92 23l-112 113l114 114l107 -106 q41 80 41 198q0 158 -66.5 255.5t-175.5 97.5q-107 0 -174 -96.5t-67 -251.5z" />
<glyph unicode="&#x490;" horiz-adv-x="1251" d="M152 0v1493l741 -2v278h307v-532h-741v-1237h-307z" />
<glyph unicode="&#x491;" horiz-adv-x="929" d="M131 0v1106h451v258h262v-490h-426v-874h-287z" />
<glyph unicode="&#x492;" horiz-adv-x="1251" d="M8 643v256h160v594h1049v-256h-742v-338h391v-256h-391v-643h-307v643h-160z" />
<glyph unicode="&#x493;" horiz-adv-x="929" d="M-12 489v185h135v432h713v-232h-426v-200h213v-185h-213v-489h-287v489h-135z" />
<glyph unicode="&#x494;" horiz-adv-x="1251" d="M152 0v1493h1048v-256h-741v-205h260q225 0 366.5 -129t141.5 -325v-476q0 -196 -141.5 -325t-366.5 -129h-76v256h51q94 0 160 57t66 154v450q0 97 -66 154t-160 57h-235v-776h-307z" />
<glyph unicode="&#x495;" horiz-adv-x="1196" d="M123 0v1106h713v-232h-426v-315q41 67 106 92t176 25q74 0 159 -23t130 -61q113 -94 113 -299v-293q0 -205 -113 -299q-47 -40 -113 -62t-135 -22h-102v244q94 0 143 67q19 28 26 56.5t7 81.5v161q0 115 -54 160t-163 45q-90 0 -135 -51.5t-45 -124.5v-256h-287z" />
<glyph unicode="&#x496;" horiz-adv-x="2238" d="M45 0l731 774l-641 719h336l502 -571v571h307v-571l502 571h336l-641 -719l522 -553h209v-528h-277v307h-90l-561 584v-584h-307v584l-561 -584h-367z" />
<glyph unicode="&#x497;" horiz-adv-x="1656" d="M33 0l436 606l-363 500h304l270 -387v387h287v-387l270 387h303l-362 -500l286 -399h150v-463h-225v256h-142l-280 406v-406h-287v406l-281 -406h-366z" />
<glyph unicode="&#x498;" horiz-adv-x="1376" d="M66 446h299q8 -120 93.5 -183.5t241.5 -63.5q140 0 220.5 53.5t80.5 146.5q0 101 -67 166.5t-213 65.5h-209v246h156q282 0 282 210q0 85 -70 135t-188 50q-146 0 -225.5 -60t-87.5 -174h-287q0 103 24.5 175.5t80.5 134.5q153 170 481 170q269 0 417 -120.5t148 -338.5 q0 -190 -129 -287q95 -52 138.5 -132.5t43.5 -203.5q0 -212 -141.5 -338t-396.5 -143q76 -45 118 -107.5t42 -132.5q0 -89 -79.5 -141.5t-215.5 -52.5q-83 0 -162 20v97q60 -13 117 -13q81 0 118 25t37 78q0 68 -34.5 118.5t-125.5 112.5q-234 23 -364.5 148t-142.5 339z " />
<glyph unicode="&#x499;" horiz-adv-x="1118" d="M59 322h281q9 -44 20.5 -66t34.5 -39q58 -39 170 -39q100 0 156.5 29t56.5 80v22.5t-3 24t-9 27.5t-18 24t-29.5 21.5t-45 13.5t-63.5 6h-188v225h192q21 0 39 3t31 7.5t23.5 13t17 14.5t11.5 18t7.5 18.5t3.5 20.5t1 18.5v18v14.5q0 46 -45.5 74t-120.5 28 q-204 0 -207 -149h-277q3 175 131 274.5t351 99.5q211 0 332.5 -99t121.5 -269q0 -114 -61 -181q-5 -5 -16 -11.5t-13 -8.5q62 -39 91.5 -92.5t29.5 -134.5t-34.5 -154t-96.5 -123q-98 -79 -264 -94q77 -46 119 -109t42 -133q0 -89 -79 -141.5t-215 -52.5q-83 0 -162 20v97 q60 -13 117 -13q81 0 118 25t37 78q0 68 -33 117t-122 112q-209 15 -318 107.5t-115 257.5z" />
<glyph unicode="&#x49a;" horiz-adv-x="1536" d="M168 0v1493h307v-571l584 571h362l-749 -719l581 -553h232v-528h-266v307h-144l-600 584v-584h-307z" />
<glyph unicode="&#x49b;" horiz-adv-x="1173" d="M123 0v1106h287v-387l331 387h303l-438 -500l342 -399h176v-463h-225v256h-147l-342 406v-406h-287z" />
<glyph unicode="&#x49c;" horiz-adv-x="1478" d="M168 0v1493h307v-571l90 88v299h162v-142l332 326h362l-694 -666v-106l758 -721h-410l-348 338v-133h-162v291l-90 88v-584h-307z" />
<glyph unicode="&#x49d;" horiz-adv-x="1173" d="M123 0v1106h287v-387l73 86v258h162v-70l96 113h303l-399 -455v-90l479 -561h-372l-107 127v-55h-162v245l-73 89v-406h-287z" />
<glyph unicode="&#x49e;" horiz-adv-x="1478" d="M4 1202v162h148v129h307v-129h157v-162h-157v-280l583 571h363l-750 -719l828 -774h-381l-643 584v-584h-307v1202h-148z" />
<glyph unicode="&#x49f;" horiz-adv-x="1173" d="M16 905v121h105v80h287v-80h110v-121h-110v-186l331 387h303l-438 -500l518 -606h-372l-342 406v-406h-287v905h-105z" />
<glyph unicode="&#x4a0;" horiz-adv-x="1867" d="M29 1237v256h778v-571l584 571h362l-749 -719l813 -774h-410l-600 584v-584h-307v1237h-471z" />
<glyph unicode="&#x4a1;" horiz-adv-x="1441" d="M41 874v232h637v-387l332 387h303l-439 -500l519 -606h-373l-342 406v-406h-287v874h-350z" />
<glyph unicode="&#x4a2;" horiz-adv-x="1542" d="M168 0v1493h307v-559h590v559h309v-1272h246v-528h-277v307h-276v678h-592v-678h-307z" />
<glyph unicode="&#x4a3;" horiz-adv-x="1245" d="M123 0v1106h287v-451h415v451h287v-899h176v-463h-225v256h-238v424h-415v-424h-287z" />
<glyph unicode="&#x4a4;" horiz-adv-x="2017" d="M139 0v1493h307v-559h590v559h946v-256h-639v-1237h-305v678h-592v-678h-307z" />
<glyph unicode="&#x4a5;" horiz-adv-x="1611" d="M123 0v1106h287v-451h415v451h693v-232h-406v-874h-287v424h-415v-424h-287z" />
<glyph unicode="&#x4a6;" horiz-adv-x="2236" d="M139 0v1493h1207v-461h260q225 0 366.5 -129t141.5 -325v-476q0 -196 -141.5 -325t-366.5 -129h-76v256h51q94 0 159.5 57t65.5 154v450q0 97 -65.5 154t-159.5 57h-235v-776h-308v1237h-592v-1237h-307z" />
<glyph unicode="&#x4a7;" horiz-adv-x="1894" d="M123 0v1106h989v-547q41 66 106.5 91.5t176.5 25.5q74 0 158.5 -23t129.5 -61q113 -94 113 -299v-293q0 -205 -113 -299q-100 -84 -247 -84h-103v244q95 0 144 67q19 28 25.5 56t6.5 82v161q0 115 -54 160t-163 45q-90 0 -135 -51.5t-45 -124.5v-256h-287v874h-415v-874 h-287z" />
<glyph unicode="&#x4a8;" horiz-adv-x="1478" d="M90 733q0 362 184 573.5t500 211.5q167 0 301.5 -61t220.5 -175q47 -63 70 -130.5t31 -164.5h-293q-13 60 -28 94.5t-40 65.5q-86 108 -252 108q-182 0 -284.5 -139.5t-102.5 -386.5q0 -245 99.5 -381.5t277.5 -136.5q143 0 230 78.5t100 220.5h299 q-13 -256 -185.5 -406.5t-451.5 -150.5q-312 0 -494 210.5t-182 569.5z" />
<glyph unicode="&#x4a9;" d="M70 530q0 282 137 438t385 156q207 0 334.5 -115t142.5 -317h-274q-25 109 -71.5 155t-133.5 46q-127 0 -178 -94q-56 -106 -56 -269q0 -161 62.5 -253.5t171.5 -92.5q83 0 130 46t75 153h274q-20 -198 -150 -314t-331 -116q-246 0 -382 151.5t-136 425.5z" />
<glyph unicode="&#x4aa;" horiz-adv-x="1478" d="M90 733q0 362 184 573.5t500 211.5q167 0 301.5 -61t220.5 -175q47 -63 70 -130.5t31 -164.5h-293q-13 60 -28 94.5t-40 65.5q-86 108 -252 108q-182 0 -284.5 -139.5t-102.5 -386.5q0 -245 99.5 -381.5t277.5 -136.5q143 0 230 78.5t100 220.5h299q-12 -237 -162 -385 t-397 -168q76 -46 118 -109t42 -133q0 -89 -79.5 -141.5t-215.5 -52.5q-83 0 -162 20v97q60 -13 117 -13q81 0 118 25t37 78q0 68 -34.5 118.5t-127.5 114.5q-265 35 -416 240.5t-151 531.5z" />
<glyph unicode="&#x4ab;" d="M70 530q0 282 137 438t385 156q207 0 334.5 -115t142.5 -317h-274q-25 109 -71.5 155t-133.5 46q-127 0 -178 -94q-56 -106 -56 -269q0 -161 62.5 -253.5t171.5 -92.5q83 0 130 46t75 153h274q-19 -178 -125.5 -290t-275.5 -134q78 -46 120.5 -109t42.5 -135 q0 -89 -79 -141.5t-215 -52.5q-83 0 -162 20v97q60 -13 117 -13q81 0 118 25t37 78q0 68 -34.5 118.5t-127.5 114.5q-198 31 -306.5 179t-108.5 390z" />
<glyph unicode="&#x4ac;" horiz-adv-x="1251" d="M29 1237v256h1196v-256h-437v-1016h246v-528h-276v307h-277v1237h-452z" />
<glyph unicode="&#x4ad;" horiz-adv-x="929" d="M43 874v232h840v-232h-277v-667h176v-463h-225v256h-238v874h-276z" />
<glyph unicode="&#x4ae;" horiz-adv-x="1366" d="M55 1493h342l305 -659l285 659h344l-473 -940v-553h-307v553z" />
<glyph unicode="&#x4af;" horiz-adv-x="1366" d="M117 1106h342l243 -660l224 660h344l-412 -940v-553h-307v553z" />
<glyph unicode="&#x4b0;" horiz-adv-x="1366" d="M55 1493h342l305 -659l285 659h344l-473 -940v-43h410v-213h-410v-297h-307v297h-410v213h410v43z" />
<glyph unicode="&#x4b1;" horiz-adv-x="1366" d="M117 1106h342l243 -660l224 660h344l-412 -940h410v-213h-410v-340h-307v340h-410v213h410z" />
<glyph unicode="&#x4b2;" horiz-adv-x="1366" d="M45 0l471 752l-455 741h365l262 -492l275 492h356l-461 -731l340 -541h139v-528h-266v307h-98l-287 518l-285 -518h-356z" />
<glyph unicode="&#x4b3;" d="M33 0l368 557l-360 549h344l180 -334l178 334h344l-360 -549l231 -350h138v-463h-226v256h-118l-187 344l-188 -344h-344z" />
<glyph unicode="&#x4b4;" horiz-adv-x="1947" d="M29 1237v256h1073v-256h-375v-981h592v1237h307v-1272h225v-528h-266v307h-1165v1237h-391z" />
<glyph unicode="&#x4b5;" horiz-adv-x="1511" d="M43 874v232h758v-232h-236v-643h416v875h287v-899h196v-463h-225v256h-960v874h-236z" />
<glyph unicode="&#x4b6;" horiz-adv-x="1599" d="M139 915v578h307v-565q0 -97 66 -154t160 -57h297v776h309v-1272h225v-528h-266v307h-266v461h-324q-225 0 -366.5 129t-141.5 325z" />
<glyph unicode="&#x4b7;" horiz-adv-x="1284" d="M123 707v399h287v-397q0 -71 43 -107.5t116 -36.5h205v541h287v-899h176v-463h-225v256h-238v334h-201q-70 0 -133.5 12.5t-122 41t-101 70.5t-68 106t-25.5 143z" />
<glyph unicode="&#x4b8;" horiz-adv-x="1402" d="M139 915v578h307v-565q0 -86 53 -141t132 -66v178h162v-182h176v776h309v-1493h-307v461h-178v-174h-162v174q-213 0 -352.5 131t-139.5 323z" />
<glyph unicode="&#x4b9;" horiz-adv-x="1183" d="M123 707v399h287v-397q0 -109 98 -136v203h162v-211h104v541h287v-1106h-287v334h-104v-170h-162v172q-79 7 -145.5 31.5t-121.5 68t-86.5 113t-31.5 158.5z" />
<glyph unicode="&#x4ba;" horiz-adv-x="1402" d="M139 0v1493h307v-461h324q225 0 366.5 -129t141.5 -325v-578h-307v565q0 97 -66 154t-160 57h-296v-776h-310z" />
<glyph unicode="&#x4bb;" horiz-adv-x="1183" d="M123 0v1106h287v-334h200q70 0 133.5 -12.5t122 -41t101.5 -70.5t68.5 -106t25.5 -143v-399h-287v397q0 71 -43.5 107.5t-116.5 36.5h-204v-541h-287z" />
<glyph unicode="&#x4bc;" horiz-adv-x="1959" d="M51 1169q0 169 82.5 263t231.5 94q124 0 199.5 -69t84.5 -191h-164q-15 66 -42.5 93t-80.5 27q-78 0 -106 -57q-33 -64 -33 -160q0 -97 37.5 -152.5t104.5 -55.5h227q53 262 225 409.5t430 147.5q141 0 256.5 -48t201 -141.5t132.5 -243t47 -342.5h-1005 q0 -254 101.5 -391t285.5 -137q166 0 252 109q25 31 39 65t28 94h293q-8 -97 -30.5 -164.5t-69.5 -130.5q-86 -114 -221 -174.5t-302 -60.5q-316 0 -500 211t-184 573v6q-114 1 -204.5 24.5t-148.5 63t-96.5 95t-54.5 115.5t-16 128zM905 961h680q-13 142 -100 220.5 t-230 78.5q-133 0 -223 -78t-127 -221z" />
<glyph unicode="&#x4bd;" horiz-adv-x="1466" d="M41 866q0 113 55 175.5t154 62.5q84 0 135 -45.5t57 -126.5h-110q-9 43 -28 61.5t-54 18.5q-51 0 -72 -37q-22 -42 -22 -109q0 -64 25.5 -100.5t68.5 -36.5h168q43 191 173 293t329 102q207 0 334.5 -115t142.5 -317v-160h-713q0 -166 61.5 -257t172.5 -91 q83 0 129.5 45.5t74.5 153.5h275q-20 -198 -150.5 -314t-331.5 -116q-246 0 -382 151.5t-136 425.5v2q-92 1 -163.5 32.5t-112 82t-60.5 106.5t-20 113zM711 729h401q-25 89 -69.5 126.5t-124.5 37.5q-128 0 -179 -94q-18 -36 -28 -70z" />
<glyph unicode="&#x4be;" horiz-adv-x="1959" d="M51 1169q0 169 82.5 263t231.5 94q124 0 199.5 -69t84.5 -191h-164q-15 66 -42.5 93t-80.5 27q-78 0 -106 -57q-33 -64 -33 -160q0 -97 37.5 -152.5t104.5 -55.5h227q53 262 225 409.5t430 147.5q141 0 256.5 -48t201 -141.5t132.5 -243t47 -342.5h-1005 q0 -254 101.5 -391t285.5 -137q166 0 252 109q25 31 39 65t28 94h293q-8 -97 -30.5 -164.5t-69.5 -130.5q-150 -200 -432 -231q77 -44 119 -107t42 -135q0 -89 -79.5 -141.5t-215.5 -52.5q-82 0 -161 20v97q60 -13 116 -13q81 0 118.5 25t37.5 78q0 68 -34 118t-124 111 q-278 31 -436 237.5t-158 542.5v6q-114 1 -204.5 24.5t-148.5 63t-96.5 95t-54.5 115.5t-16 128zM905 961h680q-13 142 -100 220.5t-230 78.5q-133 0 -223 -78t-127 -221z" />
<glyph unicode="&#x4bf;" horiz-adv-x="1466" d="M41 866q0 113 55 175.5t154 62.5q84 0 135 -45.5t57 -126.5h-110q-9 43 -28 61.5t-54 18.5q-51 0 -72 -37q-22 -42 -22 -109q0 -64 25.5 -100.5t68.5 -36.5h168q43 191 173 293t329 102q207 0 334.5 -115t142.5 -317v-160h-713q0 -166 61.5 -257t172.5 -91 q83 0 129.5 45.5t74.5 153.5h275q-19 -176 -125.5 -288.5t-274.5 -135.5q78 -46 121 -109.5t43 -134.5q0 -89 -79.5 -141.5t-215.5 -52.5q-82 0 -161 20v97q60 -13 116 -13q81 0 118.5 25t37.5 78q0 68 -34.5 118.5t-127.5 114.5q-200 29 -309 177t-109 392v2 q-92 1 -163.5 32.5t-112 82t-60.5 106.5t-20 113zM711 729h401q-25 89 -69.5 126.5t-124.5 37.5q-128 0 -179 -94q-18 -36 -28 -70z" />
<glyph unicode="&#x4c0;" horiz-adv-x="569" d="M129 0v1493h307v-1493h-307z" />
<glyph unicode="&#x4c1;" horiz-adv-x="2238" d="M45 0l731 774l-641 719h336l502 -571v571h307v-571l502 571h336l-641 -719l731 -774h-377l-551 584v-584h-307v584l-551 -584h-377zM856 1913v20h115q18 -135 157 -135q68 0 105 32.5t49 102.5h115v-22q0 -115 -77.5 -193t-193.5 -78t-193 78t-77 195z" />
<glyph unicode="&#x4c2;" horiz-adv-x="1656" d="M33 0l436 606l-363 500h304l270 -387v387h287v-387l270 387h303l-362 -500l436 -606h-367l-280 406v-406h-287v406l-281 -406h-366zM553 1520v20h115q18 -135 157 -135q68 0 105 32.5t49 102.5h115v-22q0 -116 -78 -193.5t-193 -77.5q-116 0 -193 78t-77 195z" />
<glyph unicode="&#x4c3;" horiz-adv-x="1536" d="M168 0v1493h307v-571l584 571h362l-749 -719h114q225 0 366.5 -129.5t141.5 -325.5v-217q0 -196 -141.5 -325t-366.5 -129h-75v256h51q94 0 159.5 57t65.5 154v192q0 97 -65.5 154t-159.5 57h-287v-518h-307z" />
<glyph unicode="&#x4c4;" horiz-adv-x="1173" d="M123 0v1106h287v-387l331 387h303l-438 -500l39 2q167 0 264 -99.5t97 -283.5v-227q0 -184 -97 -283.5t-264 -99.5h-102v244q176 0 176 204v97q0 205 -176 205h-133v-365h-287z" />
<glyph unicode="&#x4c7;" horiz-adv-x="1478" d="M139 0v1493h307v-559h590v559h310v-1391q0 -196 -141.5 -325t-366.5 -129h-76v256h51q94 0 159.5 57t65.5 154v563h-592v-678h-307z" />
<glyph unicode="&#x4c8;" horiz-adv-x="1245" d="M123 0v1106h287v-451h415v451h287v-1106q0 -184 -96.5 -283.5t-263.5 -99.5h-103v244q176 0 176 205v358h-415v-424h-287z" />
<glyph unicode="&#x4cb;" horiz-adv-x="1402" d="M139 915v578h307v-565q0 -97 66 -154t160 -57h297v776h309v-1493h-266v-307h-267v528h226v240h-324q-225 0 -366.5 129t-141.5 325z" />
<glyph unicode="&#x4cc;" horiz-adv-x="1183" d="M123 707v399h287v-397q0 -71 43 -107.5t116 -36.5h205v541h287v-1106h-238v-256h-225v463h176v127h-201q-70 0 -133.5 12.5t-122 41t-101 70.5t-68 106t-25.5 143z" />
<glyph unicode="&#x4d0;" horiz-adv-x="1478" d="M53 0l531 1493h340l516 -1493h-310l-102 301h-561l-100 -301h-314zM483 1913v20h115q18 -135 158 -135q68 0 104.5 32.5t48.5 102.5h115v-22q0 -116 -77.5 -193.5t-192.5 -77.5q-116 0 -193.5 78t-77.5 195zM553 557h389l-194 584z" />
<glyph unicode="&#x4d1;" d="M57 285q0 148 81.5 233t244.5 115l115 20q22 4 50.5 9t39 7t26 5t21 4.5t14.5 4.5t14.5 5.5t14.5 7.5q49 25 49 86q0 111 -166 111q-105 0 -148.5 -33t-54.5 -119h-276q27 383 473 383q224 0 338.5 -85.5t114.5 -254.5v-614q0 -43 13.5 -71.5t51.5 -63.5v-35h-311 q-20 25 -26.5 46.5t-6.5 64.5q-152 -158 -336 -158q-74 0 -142.5 27.5t-115.5 76.5q-78 84 -78 228zM285 1520v20h114q18 -135 158 -135q68 0 105 32.5t49 102.5h114v-22q0 -116 -77.5 -193.5t-192.5 -77.5q-116 0 -193 78t-77 195zM344 317q0 -61 42 -97t114 -36 q109 0 168 67.5t59 192.5v78q-27 -13 -47 -19t-74 -16l-98 -18q-87 -17 -125.5 -52.5t-38.5 -99.5z" />
<glyph unicode="&#x4d2;" horiz-adv-x="1478" d="M53 0l531 1493h340l516 -1493h-310l-102 301h-561l-100 -301h-314zM451 1640v250h225v-250h-225zM553 557h389l-194 584zM831 1640v250h226v-250h-226z" />
<glyph unicode="&#x4d3;" d="M57 285q0 148 81.5 233t244.5 115l115 20q22 4 50.5 9t39 7t26 5t21 4.5t14.5 4.5t14.5 5.5t14.5 7.5q49 25 49 86q0 111 -166 111q-105 0 -148.5 -33t-54.5 -119h-276q27 383 473 383q224 0 338.5 -85.5t114.5 -254.5v-614q0 -43 13.5 -71.5t51.5 -63.5v-35h-311 q-20 25 -26.5 46.5t-6.5 64.5q-152 -158 -336 -158q-74 0 -142.5 27.5t-115.5 76.5q-78 84 -78 228zM252 1247v250h225v-250h-225zM344 317q0 -61 42 -97t114 -36q109 0 168 67.5t59 192.5v78q-27 -13 -47 -19t-74 -16l-98 -18q-87 -17 -125.5 -52.5t-38.5 -99.5zM633 1247 v250h225v-250h-225z" />
<glyph unicode="&#x4d4;" horiz-adv-x="2048" d="M2 0l539 1493h1396v-256h-749v-338h694v-256h-694v-387h790v-256h-1097v311h-457l-109 -311h-313zM510 567h371v670h-138z" />
<glyph unicode="&#x4d5;" horiz-adv-x="1820" d="M55 289q0 151 80 236.5t246 113.5l115 20q106 17 128.5 22.5t51.5 20.5q23 12 36 34.5t13 47.5q0 109 -174 109q-97 0 -140.5 -34.5t-54.5 -117.5h-268q6 383 467 383q241 0 358 -102q126 102 318 102q172 0 298 -84.5t183 -236.5q43 -121 43 -291q0 -24 -2 -49h-741 q0 -71 9 -113.5t32 -77.5q31 -47 81.5 -73.5t110.5 -26.5q73 0 133.5 39.5t79.5 99.5h283q-47 -164 -186.5 -261t-325.5 -97q-135 0 -240.5 54.5t-169.5 158.5q-95 -112 -195 -163.5t-225 -51.5q-158 0 -251 91.5t-93 246.5zM342 317q0 -63 42 -99t114 -36q110 0 168.5 67 t58.5 193v78q-47 -27 -121 -39l-98 -14q-164 -21 -164 -150zM1014 653h442q-21 252 -223 252q-98 0 -154 -64t-65 -188z" />
<glyph unicode="&#x4d6;" horiz-adv-x="1452" d="M168 0v1493h1079v-256h-772v-338h715v-256h-715v-387h809v-256h-1116zM438 1913v20h115q18 -135 156 -135q68 0 105.5 32.5t49.5 102.5h115v-22q0 -115 -78 -193t-192 -78q-117 0 -194 78t-77 195z" />
<glyph unicode="&#x4d7;" d="M45 524q0 278 137 439t375 161q167 0 293.5 -85t181.5 -236q43 -124 43 -291q0 -24 -2 -49h-741q5 -141 41 -195q65 -96 188 -96q78 0 135.5 36.5t83.5 102.5h283q-47 -163 -186.5 -260.5t-325.5 -97.5q-235 0 -370.5 153t-135.5 418zM287 1520v20h114q18 -135 158 -135 q68 0 105 32.5t49 102.5h114v-22q0 -116 -77.5 -193.5t-192.5 -77.5q-116 0 -193 78t-77 195zM336 653h440q-8 104 -45 160q-31 43 -77.5 67.5t-100.5 24.5q-190 0 -217 -252z" />
<glyph unicode="&#x4d8;" horiz-adv-x="1478" d="M90 727h1006q0 254 -101.5 391t-285.5 137q-167 0 -252 -108q-25 -31 -40 -65.5t-28 -94.5h-293q8 97 31 164.5t70 130.5q86 114 220.5 175t301.5 61q316 0 500 -211.5t184 -573.5q0 -359 -182 -569.5t-494 -210.5q-141 0 -256.5 47.5t-201 141.5t-132.5 243t-47 342z M389 510q13 -142 100 -220.5t230 -78.5q133 0 223 78t127 221h-680z" />
<glyph unicode="&#x4d9;" d="M70 385v160h712q0 163 -62 255.5t-171 92.5q-83 0 -130 -46t-75 -153h-274q20 198 150 314t331 116q246 0 382 -151.5t136 -425.5q0 -282 -137 -438t-385 -156q-207 0 -334.5 115t-142.5 317zM354 346q25 -89 70 -126.5t125 -37.5q127 0 178 94q20 41 29 70h-402z" />
<glyph unicode="&#x4da;" horiz-adv-x="1478" d="M90 727h1006q0 254 -101.5 391t-285.5 137q-167 0 -252 -108q-25 -31 -40 -65.5t-28 -94.5h-293q8 97 31 164.5t70 130.5q86 114 220.5 175t301.5 61q316 0 500 -211.5t184 -573.5q0 -359 -182 -569.5t-494 -210.5q-141 0 -256.5 47.5t-201 141.5t-132.5 243t-47 342z M389 510q13 -142 100 -220.5t230 -78.5q133 0 223 78t127 221h-680zM416 1640v250h225v-250h-225zM797 1640v250h225v-250h-225z" />
<glyph unicode="&#x4db;" d="M70 385v160h712q0 163 -62 255.5t-171 92.5q-83 0 -130 -46t-75 -153h-274q20 198 150 314t331 116q246 0 382 -151.5t136 -425.5q0 -282 -137 -438t-385 -156q-207 0 -334.5 115t-142.5 317zM248 1247v250h225v-250h-225zM354 346q25 -89 70 -126.5t125 -37.5 q127 0 178 94q20 41 29 70h-402zM629 1247v250h225v-250h-225z" />
<glyph unicode="&#x4dc;" horiz-adv-x="2238" d="M45 0l731 774l-641 719h336l502 -571v571h307v-571l502 571h336l-641 -719l731 -774h-377l-551 584v-584h-307v584l-551 -584h-377zM823 1640v250h226v-250h-226zM1204 1640v250h226v-250h-226z" />
<glyph unicode="&#x4dd;" horiz-adv-x="1656" d="M33 0l436 606l-363 500h304l270 -387v387h287v-387l270 387h303l-362 -500l436 -606h-367l-280 406v-406h-287v406l-281 -406h-366zM520 1247v250h225v-250h-225zM901 1247v250h225v-250h-225z" />
<glyph unicode="&#x4de;" horiz-adv-x="1376" d="M66 446h299q8 -120 93.5 -183.5t241.5 -63.5q140 0 220.5 53.5t80.5 146.5q0 101 -67 166.5t-213 65.5h-209v246h156q282 0 282 210q0 85 -70 135t-188 50q-146 0 -225.5 -60t-87.5 -174h-287q0 103 24.5 175.5t80.5 134.5q153 170 481 170q269 0 417 -120.5t148 -338.5 q0 -190 -129 -287q95 -52 138.5 -132.5t43.5 -203.5q0 -227 -161.5 -355t-450.5 -128q-286 0 -445.5 127t-172.5 366zM375 1640v250h225v-250h-225zM756 1640v250h225v-250h-225z" />
<glyph unicode="&#x4df;" horiz-adv-x="1118" d="M59 322h281q9 -44 20.5 -66t34.5 -39q58 -39 170 -39q100 0 156.5 29t56.5 80v22.5t-3 24t-9 27.5t-18 24t-29.5 21.5t-45 13.5t-63.5 6h-188v225h192q21 0 39 3t31 7.5t23.5 13t17 14.5t11.5 18t7.5 18.5t3.5 20.5t1 18.5v18v14.5q0 46 -45.5 74t-120.5 28 q-204 0 -207 -149h-277q3 175 131 274.5t351 99.5q211 0 332.5 -99t121.5 -269q0 -114 -61 -181q-5 -5 -16 -11.5t-13 -8.5q62 -39 91.5 -92.5t29.5 -134.5t-34.5 -154t-96.5 -123q-122 -98 -352 -98q-252 0 -384.5 93.5t-138.5 275.5zM276 1247v250h226v-250h-226z M657 1247v250h226v-250h-226z" />
<glyph unicode="&#x4e0;" horiz-adv-x="1376" d="M66 446h299q8 -120 93.5 -183.5t241.5 -63.5q140 0 220.5 53.5t80.5 146.5q0 101 -67 166.5t-213 65.5h-209v246h156q282 0 282 210q0 85 -70 135t-188 50q-146 0 -225.5 -60t-87.5 -174h-287q0 103 24.5 175.5t80.5 134.5q153 170 481 170q269 0 417 -120.5t148 -338.5 q0 -190 -129 -287q95 -52 138.5 -132.5t43.5 -203.5q0 -227 -161.5 -355t-450.5 -128q-286 0 -445.5 127t-172.5 366z" />
<glyph unicode="&#x4e1;" horiz-adv-x="1118" d="M59 322h281q9 -44 20.5 -66t34.5 -39q58 -39 170 -39q100 0 156.5 29t56.5 80v22.5t-3 24t-9 27.5t-18 24t-29.5 21.5t-45 13.5t-63.5 6h-188v225h192q21 0 39 3t31 7.5t23.5 13t17 14.5t11.5 18t7.5 18.5t3.5 20.5t1 18.5v18v14.5q0 46 -45.5 74t-120.5 28 q-204 0 -207 -149h-277q3 175 131 274.5t351 99.5q211 0 332.5 -99t121.5 -269q0 -114 -61 -181q-5 -5 -16 -11.5t-13 -8.5q62 -39 91.5 -92.5t29.5 -134.5t-34.5 -154t-96.5 -123q-122 -98 -352 -98q-252 0 -384.5 93.5t-138.5 275.5z" />
<glyph unicode="&#x4e2;" horiz-adv-x="1550" d="M168 0v1493h307v-1016l592 1016h315v-1493h-307v1032l-600 -1032h-307zM469 1640v162h612v-162h-612z" />
<glyph unicode="&#x4e3;" horiz-adv-x="1259" d="M123 0v1106h287v-692l399 692h328v-1106h-287v692l-399 -692h-328zM324 1247v162h612v-162h-612z" />
<glyph unicode="&#x4e4;" horiz-adv-x="1550" d="M168 0v1493h307v-1016l592 1016h315v-1493h-307v1032l-600 -1032h-307zM471 1640v250h225v-250h-225zM852 1640v250h225v-250h-225z" />
<glyph unicode="&#x4e5;" horiz-adv-x="1259" d="M123 0v1106h287v-692l399 692h328v-1106h-287v692l-399 -692h-328zM328 1247v250h225v-250h-225zM709 1247v250h225v-250h-225z" />
<glyph unicode="&#x4e6;" horiz-adv-x="1593" d="M82 735q0 167 54.5 318t154.5 258q192 207 508 207q320 0 512 -207q100 -108 154.5 -260t54.5 -326q0 -158 -56 -310t-153 -255q-192 -207 -510 -207t-510 207q-100 106 -154.5 256.5t-54.5 318.5zM389 735q0 -235 113 -377.5t299 -142.5q184 0 297.5 141.5t113.5 370.5 q0 243 -111 385.5t-300 142.5q-186 0 -299 -142.5t-113 -377.5zM496 1640v250h225v-250h-225zM877 1640v250h225v-250h-225z" />
<glyph unicode="&#x4e7;" horiz-adv-x="1251" d="M72 539q0 272 145.5 428.5t398.5 156.5q260 0 404.5 -156.5t144.5 -437.5q0 -266 -147.5 -421.5t-399.5 -155.5q-255 0 -400.5 156t-145.5 430zM313 1247v250h226v-250h-226zM358 539q0 -159 71.5 -257t188.5 -98q115 0 188 98t73 253q0 163 -71 260.5t-190 97.5 q-117 0 -188.5 -97.5t-71.5 -256.5zM694 1247v250h226v-250h-226z" />
<glyph unicode="&#x4e8;" horiz-adv-x="1593" d="M82 735q0 167 54.5 318t154.5 258q192 207 508 207q320 0 512 -207q100 -108 154.5 -260t54.5 -326q0 -158 -56 -310t-153 -255q-192 -207 -510 -207t-510 207q-100 106 -154.5 256.5t-54.5 318.5zM393 657q19 -203 128.5 -322.5t279.5 -119.5q169 0 279.5 120.5 t129.5 321.5h-817zM393 819h815q-22 203 -129.5 319.5t-277.5 116.5q-168 0 -278 -118t-130 -318z" />
<glyph unicode="&#x4e9;" horiz-adv-x="1251" d="M72 539q0 272 145.5 428.5t398.5 156.5q260 0 404.5 -156.5t144.5 -437.5q0 -266 -147.5 -421.5t-399.5 -155.5q-255 0 -400.5 156t-145.5 430zM365 459q17 -126 85 -200.5t168 -74.5q99 0 168 75t88 200h-509zM365 621h507q-17 126 -85 199t-169 73t-168.5 -73.5 t-84.5 -198.5z" />
<glyph unicode="&#x4ea;" horiz-adv-x="1593" d="M82 735q0 167 54.5 318t154.5 258q192 207 508 207q320 0 512 -207q100 -108 154.5 -260t54.5 -326q0 -158 -56 -310t-153 -255q-192 -207 -510 -207t-510 207q-100 106 -154.5 256.5t-54.5 318.5zM393 657q19 -203 128.5 -322.5t279.5 -119.5q169 0 279.5 120.5 t129.5 321.5h-817zM393 819h815q-22 203 -129.5 319.5t-277.5 116.5q-168 0 -278 -118t-130 -318zM496 1640v250h225v-250h-225zM877 1640v250h225v-250h-225z" />
<glyph unicode="&#x4eb;" horiz-adv-x="1251" d="M72 539q0 272 145.5 428.5t398.5 156.5q260 0 404.5 -156.5t144.5 -437.5q0 -266 -147.5 -421.5t-399.5 -155.5q-255 0 -400.5 156t-145.5 430zM313 1247v250h226v-250h-226zM365 459q17 -126 85 -200.5t168 -74.5q99 0 168 75t88 200h-509zM365 621h507q-17 126 -85 199 t-169 73t-168.5 -73.5t-84.5 -198.5zM694 1247v250h226v-250h-226z" />
<glyph unicode="&#x4ec;" horiz-adv-x="1478" d="M90 510h299q13 -142 100 -220.5t230 -78.5q161 0 257.5 111.5t115.5 314.5h-598v256h596q-31 172 -131.5 267t-249.5 95q-167 0 -252 -108q-25 -31 -40 -65.5t-28 -94.5h-293q8 97 31 164.5t70 130.5q86 114 220.5 175t301.5 61q316 0 500 -211.5t184 -573.5 q0 -359 -182 -569.5t-494 -210.5q-279 0 -451.5 150.5t-185.5 406.5zM416 1640v250h225v-250h-225zM797 1640v250h225v-250h-225z" />
<glyph unicode="&#x4ed;" horiz-adv-x="1155" d="M70 383h274q28 -107 75 -153t130 -46q89 0 147.5 63t77.5 177h-358v231h356q-16 87 -45 144q-51 94 -178 94q-87 0 -133.5 -46t-71.5 -155h-274q15 202 142.5 317t334.5 115q248 0 385 -156t137 -438q0 -274 -136 -425.5t-382 -151.5q-201 0 -331 116t-150 314zM244 1247 v250h225v-250h-225zM625 1247v250h225v-250h-225z" />
<glyph unicode="&#x4ee;" horiz-adv-x="1470" d="M31 1493h334l352 -707l352 707h356l-753 -1493h-357l234 463zM422 1640v162h612v-162h-612z" />
<glyph unicode="&#x4ef;" d="M18 1106h316l244 -805l229 805h295l-445 -1309q-34 -98 -71 -141.5t-101 -69.5q-86 -35 -206 -35q-39 0 -103 9v215q48 -13 76 -13q75 0 124.5 52.5t49.5 130.5v8v2zM254 1247v162h612v-162h-612z" />
<glyph unicode="&#x4f0;" horiz-adv-x="1470" d="M31 1493h334l352 -707l352 707h356l-753 -1493h-357l234 463zM426 1640v250h225v-250h-225zM807 1640v250h225v-250h-225z" />
<glyph unicode="&#x4f1;" d="M18 1106h316l244 -805l229 805h295l-445 -1309q-34 -98 -71 -141.5t-101 -69.5q-86 -35 -206 -35q-39 0 -103 9v215q48 -13 76 -13q75 0 124.5 52.5t49.5 130.5v8v2zM258 1247v250h225v-250h-225zM639 1247v250h225v-250h-225z" />
<glyph unicode="&#x4f2;" horiz-adv-x="1470" d="M31 1493h334l352 -707l352 707h356l-753 -1493h-357l234 463zM463 1640l143 302h258l-258 -302h-143zM848 1640l143 302h258l-258 -302h-143z" />
<glyph unicode="&#x4f3;" d="M18 1106h316l244 -805l229 805h295l-445 -1309q-34 -98 -71 -141.5t-101 -69.5q-86 -35 -206 -35q-39 0 -103 9v215q48 -13 76 -13q75 0 124.5 52.5t49.5 130.5v8v2zM295 1247l143 301h258l-258 -301h-143zM680 1247l143 301h258l-258 -301h-143z" />
<glyph unicode="&#x4f4;" horiz-adv-x="1402" d="M139 915v578h307v-565q0 -97 66 -154t160 -57h297v776h309v-1493h-307v461h-324q-225 0 -366.5 129t-141.5 325zM406 1640v250h225v-250h-225zM786 1640v250h226v-250h-226z" />
<glyph unicode="&#x4f5;" horiz-adv-x="1183" d="M123 707v399h287v-397q0 -71 43 -107.5t116 -36.5h205v541h287v-1106h-287v334h-201q-70 0 -133.5 12.5t-122 41t-101 70.5t-68 106t-25.5 143zM289 1247v250h225v-250h-225zM670 1247v250h225v-250h-225z" />
<glyph unicode="&#x4f8;" horiz-adv-x="1943" d="M139 0v1493h307v-532h383q206 0 328.5 -135.5t122.5 -362.5q0 -224 -124 -343.5t-357 -119.5h-660zM446 256h287q123 0 181.5 55t58.5 170q0 114 -58.5 169t-181.5 55h-287v-449zM672 1640v250h225v-250h-225zM1053 1640v250h225v-250h-225zM1503 0v1493h307v-1493h-307z " />
<glyph unicode="&#x4f9;" horiz-adv-x="1660" d="M123 0v1106h287v-371h241q217 0 328 -107t111 -284q0 -70 -30 -147.5t-79 -116.5q-95 -80 -279 -80h-579zM410 225h223q83 0 127.5 37.5t44.5 106.5t-48.5 105t-133.5 36h-213v-285zM494 1247v250h225v-250h-225zM874 1247v250h226v-250h-226zM1184 0v1106h286v-1106 h-286z" />
<glyph unicode="&#xe3f;" horiz-adv-x="1478" d="M168 0v1493h481v170h164v-170h21q113 0 206.5 -31.5t154 -86t93.5 -125t33 -150.5q0 -95 -47.5 -165.5t-157.5 -141.5q248 -145 248 -363q0 -192 -135.5 -311t-388.5 -119h-27v-170h-164v170h-481zM475 256h174v387h-174v-387zM475 899h174v338h-174v-338zM813 256h29 q112 0 169.5 49.5t57.5 143.5q0 95 -57.5 144.5t-169.5 49.5h-29v-387zM813 899q213 3 213 168q0 167 -213 170v-338z" />
<glyph unicode="&#x1e0c;" horiz-adv-x="1478" d="M158 0v1493h583q172 0 284 -40.5t187 -131.5q89 -105 136 -253t47 -320q0 -173 -47.5 -321t-135.5 -253q-77 -91 -189 -132.5t-282 -41.5h-583zM465 256h276q346 0 346 489q0 492 -346 492h-276v-981zM598 -133h287v-287h-287v287z" />
<glyph unicode="&#x1e0d;" horiz-adv-x="1251" d="M59 551q0 249 133 411t332 162q201 0 305 -161v530h287v-1493h-287v127q-111 -145 -305 -145q-142 0 -249.5 77.5t-161.5 205.5t-54 286zM346 551q0 -151 67 -240.5t175 -89.5t174.5 88.5t66.5 237.5q0 157 -65.5 247.5t-175.5 90.5q-108 0 -175 -91t-67 -243zM483 -133 h287v-287h-287v287z" />
<glyph unicode="&#x1e0e;" horiz-adv-x="1478" d="M158 0v1493h583q172 0 284 -40.5t187 -131.5q89 -105 136 -253t47 -320q0 -173 -47.5 -321t-135.5 -253q-77 -91 -189 -132.5t-282 -41.5h-583zM434 -195h613v-161h-613v161zM465 256h276q346 0 346 489q0 492 -346 492h-276v-981z" />
<glyph unicode="&#x1e0f;" horiz-adv-x="1251" d="M59 551q0 249 133 411t332 162q201 0 305 -161v530h287v-1493h-287v127q-111 -145 -305 -145q-142 0 -249.5 77.5t-161.5 205.5t-54 286zM317 -195h613v-161h-613v161zM346 551q0 -151 67 -240.5t175 -89.5t174.5 88.5t66.5 237.5q0 157 -65.5 247.5t-175.5 90.5 q-108 0 -175 -91t-67 -243z" />
<glyph unicode="&#x1e24;" horiz-adv-x="1478" d="M139 0v1493h307v-559h592v559h308v-1493h-308v678h-592v-678h-307zM600 -133h287v-287h-287v287z" />
<glyph unicode="&#x1e25;" horiz-adv-x="1251" d="M137 0v1493h287v-547q118 178 324 178q163 0 261.5 -98t98.5 -285v-741h-287v676q0 205 -176 205q-97 0 -159 -61t-62 -156v-664h-287zM479 -133h287v-287h-287v287z" />
<glyph unicode="&#x1e26;" horiz-adv-x="1478" d="M139 0v1493h307v-559h592v559h308v-1493h-308v678h-592v-678h-307zM416 1632v236h258v-236h-258zM815 1632v236h258v-236h-258z" />
<glyph unicode="&#x1e27;" horiz-adv-x="1251" d="M137 0v1493h287v-547q118 178 324 178q163 0 261.5 -98t98.5 -285v-741h-287v676q0 205 -176 205q-97 0 -159 -61t-62 -156v-664h-287zM297 1632v236h258v-236h-258zM696 1632v236h258v-236h-258z" />
<glyph unicode="&#x1e2a;" horiz-adv-x="1478" d="M139 0v1493h307v-559h592v559h308v-1493h-308v678h-592v-678h-307zM373 -152h145q9 -43 63.5 -62t161.5 -19q213 0 224 81h145q-12 -123 -107 -186t-266 -63q-165 0 -264 61t-102 188z" />
<glyph unicode="&#x1e2b;" horiz-adv-x="1251" d="M137 0v1493h287v-547q118 178 324 178q163 0 261.5 -98t98.5 -285v-741h-287v676q0 205 -176 205q-97 0 -159 -61t-62 -156v-664h-287zM252 -152h145q9 -43 64 -62t162 -19q212 0 223 81h145q-12 -123 -107 -186t-266 -63q-165 0 -264 61t-102 188z" />
<glyph unicode="&#x1e36;" horiz-adv-x="1251" d="M164 0v1493h307v-1237h715v-256h-1022zM532 -133h287v-287h-287v287z" />
<glyph unicode="&#x1e37;" horiz-adv-x="569" d="M137 0v1493h287v-1493h-287zM141 -133h287v-287h-287v287z" />
<glyph unicode="&#x1e38;" horiz-adv-x="1251" d="M10 1669v162h613v-162h-613zM164 0v1493h307v-1237h715v-256h-1022zM532 -133h287v-287h-287v287z" />
<glyph unicode="&#x1e39;" horiz-adv-x="569" d="M-27 1669v162h613v-162h-613zM137 0v1493h287v-1493h-287zM141 -133h287v-287h-287v287z" />
<glyph unicode="&#x1e42;" horiz-adv-x="1705" d="M135 0v1493h459l270 -1188l262 1188h463v-1493h-307v1163l-264 -1163h-307l-269 1163v-1163h-307zM711 -133h286v-287h-286v287z" />
<glyph unicode="&#x1e43;" horiz-adv-x="1820" d="M123 0v1106h285v-137q71 85 139.5 120t163.5 35q103 0 182 -42.5t119 -120.5q64 86 141 124.5t182 38.5q166 0 259.5 -90.5t93.5 -251.5v-782h-287v737q0 66 -42 105t-114 39q-92 0 -144 -58t-52 -159v-664h-287v737q0 66 -42 105t-114 39q-92 0 -144 -58t-52 -159v-664 h-287zM768 -133h287v-287h-287v287z" />
<glyph unicode="&#x1e44;" horiz-adv-x="1478" d="M139 0v1493h316l592 -1016v1016h307v-1493h-307l-601 1032v-1032h-307zM598 1606v286h287v-286h-287z" />
<glyph unicode="&#x1e45;" horiz-adv-x="1251" d="M129 0v1106h287v-160q62 93 141 135.5t191 42.5q177 0 273.5 -100t96.5 -283v-741h-287v682q0 199 -184 199q-104 0 -167.5 -59.5t-63.5 -157.5v-664h-287zM483 1239v287h287v-287h-287z" />
<glyph unicode="&#x1e46;" horiz-adv-x="1478" d="M139 0v1493h316l592 -1016v1016h307v-1493h-307l-601 1032v-1032h-307zM596 -133h287v-287h-287v287z" />
<glyph unicode="&#x1e47;" horiz-adv-x="1251" d="M129 0v1106h287v-160q62 93 141 135.5t191 42.5q177 0 273.5 -100t96.5 -283v-741h-287v682q0 199 -184 199q-104 0 -167.5 -59.5t-63.5 -157.5v-664h-287zM483 -133h287v-287h-287v287z" />
<glyph unicode="&#x1e58;" horiz-adv-x="1478" d="M164 0v1493h801q192 0 296.5 -111.5t104.5 -291.5q0 -270 -252 -369q41 -18 63.5 -28.5t47.5 -30t36.5 -33t24 -46.5t17 -60.5t9.5 -86t6 -111.5t3 -147q0 -49 14.5 -75.5t50.5 -47.5v-55h-329q-29 54 -38 102.5t-9 153.5l4 158q0 94 -45.5 136t-145.5 42h-352v-592h-307 zM471 848h371q125 0 171 47t46 152q0 100 -47.5 145t-169.5 45h-371v-389zM598 1606v286h287v-286h-287z" />
<glyph unicode="&#x1e59;" horiz-adv-x="796" d="M129 0v1106h287v-217q45 112 126.5 173.5t180.5 61.5q19 0 35 -2v-291q-58 9 -90 9q-252 0 -252 -252v-588h-287zM272 1239v287h287v-287h-287z" />
<glyph unicode="&#x1e5a;" horiz-adv-x="1478" d="M164 0v1493h801q192 0 296.5 -111.5t104.5 -291.5q0 -270 -252 -369q41 -18 63.5 -28.5t47.5 -30t36.5 -33t24 -46.5t17 -60.5t9.5 -86t6 -111.5t3 -147q0 -49 14.5 -75.5t50.5 -47.5v-55h-329q-29 54 -38 102.5t-9 153.5l4 158q0 94 -45.5 136t-145.5 42h-352v-592h-307 zM471 848h371q125 0 171 47t46 152q0 100 -47.5 145t-169.5 45h-371v-389zM596 -133h287v-287h-287v287z" />
<glyph unicode="&#x1e5b;" horiz-adv-x="796" d="M129 0v1106h287v-217q45 112 126.5 173.5t180.5 61.5q19 0 35 -2v-291q-58 9 -90 9q-252 0 -252 -252v-588h-287zM129 -133h287v-287h-287v287z" />
<glyph unicode="&#x1e5c;" horiz-adv-x="1478" d="M164 0v1493h801q192 0 296.5 -111.5t104.5 -291.5q0 -270 -252 -369q41 -18 63.5 -28.5t47.5 -30t36.5 -33t24 -46.5t17 -60.5t9.5 -86t6 -111.5t3 -147q0 -49 14.5 -75.5t50.5 -47.5v-55h-329q-29 54 -38 102.5t-9 153.5l4 158q0 94 -45.5 136t-145.5 42h-352v-592h-307 zM432 1669v162h612v-162h-612zM471 848h371q125 0 171 47t46 152q0 100 -47.5 145t-169.5 45h-371v-389zM596 -133h287v-287h-287v287z" />
<glyph unicode="&#x1e5d;" horiz-adv-x="796" d="M106 1321v162h613v-162h-613zM129 0v1106h287v-217q45 112 126.5 173.5t180.5 61.5q19 0 35 -2v-291q-58 9 -90 9q-252 0 -252 -252v-588h-287zM129 -133h287v-287h-287v287z" />
<glyph unicode="&#x1e62;" horiz-adv-x="1366" d="M66 469h299q0 -119 88.5 -183.5t246.5 -64.5q142 0 221.5 49.5t79.5 141.5q0 88 -60.5 130t-219.5 74l-209 41q-228 44 -324 136t-96 266q0 218 148 338.5t417 120.5q277 0 431.5 -123.5t154.5 -356.5h-287q0 113 -82.5 173.5t-230.5 60.5q-118 0 -188 -50t-70 -135 q0 -81 59 -121.5t224 -72.5l233 -45q209 -40 302 -132t93 -267q0 -226 -161 -350t-451 -124q-289 0 -453.5 128.5t-164.5 365.5zM528 -133h287v-287h-287v287z" />
<glyph unicode="&#x1e63;" d="M59 350h281q18 -85 69 -114t156 -29q213 0 213 94q0 24 -21.5 41.5t-74.5 34.5l-342 106q-76 23 -124 49.5t-74 61t-35 71.5t-9 91q0 170 122 269t333 99q223 0 350.5 -99.5t130.5 -274.5h-276q-3 149 -207 149q-75 0 -120.5 -28t-45.5 -74q0 -34 20 -51.5t80 -34.5 l363 -105q107 -32 162 -100t55 -164v-14q0 -167 -125 -256.5t-358 -89.5q-252 0 -384.5 93t-138.5 275zM426 -133h287v-287h-287v287z" />
<glyph unicode="&#x1e6c;" horiz-adv-x="1251" d="M29 1237v256h1196v-256h-437v-1237h-307v1237h-452zM483 -133h287v-287h-287v287z" />
<glyph unicode="&#x1e6d;" horiz-adv-x="681" d="M29 893v190h141v297h287v-297h159v-190h-159v-578q0 -73 18.5 -96.5t75.5 -23.5q21 0 65 6v-201q-12 0 -70 -4t-95 -4q-143 0 -212 58.5t-69 187.5v655h-141zM199 -133h286v-287h-286v287z" />
<glyph unicode="&#x1e6e;" horiz-adv-x="1251" d="M29 1237v256h1196v-256h-437v-1237h-307v1237h-452zM319 -195h613v-161h-613v161z" />
<glyph unicode="&#x1e6f;" horiz-adv-x="681" d="M29 893v190h141v297h287v-297h159v-190h-159v-578q0 -73 18.5 -96.5t75.5 -23.5q21 0 65 6v-201q-12 0 -70 -4t-95 -4q-143 0 -212 58.5t-69 187.5v655h-141zM33 -195h612v-161h-612v161z" />
<glyph unicode="&#x1e80;" horiz-adv-x="1933" d="M27 1493h325l232 -1118l231 1118h303l242 -1120l223 1120h326l-414 -1493h-276l-250 1165l-244 -1165h-276zM582 1886h338l155 -276h-217z" />
<glyph unicode="&#x1e81;" horiz-adv-x="1593" d="M10 1106h297l176 -774l168 774h287l166 -774l168 774h297l-314 -1106h-297l-165 780l-177 -780h-294zM436 1540h320l143 -315h-205z" />
<glyph unicode="&#x1e82;" horiz-adv-x="1933" d="M27 1493h325l232 -1118l231 1118h303l242 -1120l223 1120h326l-414 -1493h-276l-250 1165l-244 -1165h-276zM858 1610l156 276h338l-277 -276h-217z" />
<glyph unicode="&#x1e83;" horiz-adv-x="1593" d="M10 1106h297l176 -774l168 774h287l166 -774l168 774h297l-314 -1106h-297l-165 780l-177 -780h-294zM694 1225l144 315h319l-258 -315h-205z" />
<glyph unicode="&#x1e84;" horiz-adv-x="1933" d="M27 1493h325l232 -1118l231 1118h303l242 -1120l223 1120h326l-414 -1493h-276l-250 1165l-244 -1165h-276zM639 1632v236h258v-236h-258zM1038 1632v236h258v-236h-258z" />
<glyph unicode="&#x1e85;" horiz-adv-x="1593" d="M10 1106h297l176 -774l168 774h287l166 -774l168 774h297l-314 -1106h-297l-165 780l-177 -780h-294zM467 1266v235h258v-235h-258zM866 1266v235h258v-235h-258z" />
<glyph unicode="&#x1e92;" horiz-adv-x="1251" d="M61 0v256l764 981h-764v256h1123v-256l-762 -981h762v-256h-1123zM479 -133h287v-287h-287v287z" />
<glyph unicode="&#x1e93;" horiz-adv-x="1024" d="M43 0v231l547 643h-510v232h860v-232l-543 -643h561v-231h-915zM369 -133h286v-287h-286v287z" />
<glyph unicode="&#x1e97;" horiz-adv-x="681" d="M-14 1520v235h258v-235h-258zM29 893v190h141v297h287v-297h159v-190h-159v-578q0 -73 18.5 -96.5t75.5 -23.5q21 0 65 6v-201q-12 0 -70 -4t-95 -4q-143 0 -212 58.5t-69 187.5v655h-141zM385 1520v235h258v-235h-258z" />
<glyph unicode="&#x1ea0;" horiz-adv-x="1478" d="M53 0l531 1493h340l516 -1493h-316l-98 301h-559l-100 -301h-314zM553 557h389l-194 584zM596 -133h287v-287h-287v287z" />
<glyph unicode="&#x1ea1;" d="M57 299q0 148 79 226t247 108l115 20q25 4 65.5 10t58.5 9t43 11t35.5 19.5t18.5 31t8 48.5q0 111 -166 111q-105 0 -148.5 -33t-54.5 -119h-276q27 383 473 383q224 0 338.5 -85.5t114.5 -254.5v-614q0 -43 13.5 -71.5t51.5 -63.5v-35h-311q-33 40 -33 139 q-151 -157 -336 -157q-146 0 -241 81.5t-95 235.5zM344 332q0 -119 156 -119q109 0 168 67.5t59 192.5v49q-27 -13 -47 -19t-74 -16l-98 -18q-92 -18 -128 -46.5t-36 -90.5zM412 -133h286v-287h-286v287z" />
<glyph unicode="&#x1ea2;" horiz-adv-x="1478" d="M53 0l531 1493h340l516 -1493h-316l-98 301h-559l-100 -301h-314zM522 1806q0 110 61 161.5t167 51.5q103 0 168 -50t65 -128q0 -47 -24 -79t-89 -70q-39 -22 -49 -36.5t-10 -51.5h-127q0 56 20.5 90t75.5 71q38 27 49 39t11 33q0 32 -25 53t-63 21q-43 0 -68 -27 t-25 -78h-137zM553 557h389l-194 584z" />
<glyph unicode="&#x1ea3;" d="M57 299q0 148 79 226t247 108l115 20q25 4 65.5 10t58.5 9t43 11t35.5 19.5t18.5 31t8 48.5q0 111 -166 111q-105 0 -148.5 -33t-54.5 -119h-276q27 383 473 383q224 0 338.5 -85.5t114.5 -254.5v-614q0 -43 13.5 -71.5t51.5 -63.5v-35h-311q-33 40 -33 139 q-151 -157 -336 -157q-146 0 -241 81.5t-95 235.5zM324 1419q0 110 60.5 161.5t166.5 51.5q103 0 168 -50t65 -128q0 -47 -24 -79t-88 -70q-40 -23 -50 -37t-10 -51h-127q0 55 20.5 89.5t76.5 71.5q37 26 48 38.5t11 33.5q0 32 -25 53t-63 21q-42 0 -67 -27t-25 -78h-137z M344 332q0 -119 156 -119q109 0 168 67.5t59 192.5v49q-27 -13 -47 -19t-74 -16l-98 -18q-92 -18 -128 -46.5t-36 -90.5z" />
<glyph unicode="&#x1ea4;" horiz-adv-x="1478" d="M53 0l531 1493h340l516 -1493h-316l-98 301h-559l-100 -301h-314zM365 1612l266 276h262l254 -276h-193l-200 143l-203 -143h-186zM553 557h389l-194 584zM645 1929l156 277h338l-277 -277h-217z" />
<glyph unicode="&#x1ea5;" d="M57 299q0 148 79 226t247 108l115 20q25 4 65.5 10t58.5 9t43 11t35.5 19.5t18.5 31t8 48.5q0 111 -166 111q-105 0 -148.5 -33t-54.5 -119h-276q27 383 473 383q224 0 338.5 -85.5t114.5 -254.5v-614q0 -43 13.5 -71.5t51.5 -63.5v-35h-311q-33 40 -33 139 q-151 -157 -336 -157q-146 0 -241 81.5t-95 235.5zM166 1225l266 276h262l254 -276h-192l-201 143l-203 -143h-186zM344 332q0 -119 156 -119q109 0 168 67.5t59 192.5v49q-27 -13 -47 -19t-74 -16l-98 -18q-92 -18 -128 -46.5t-36 -90.5zM446 1542l156 277h338l-276 -277 h-218z" />
<glyph unicode="&#x1ea6;" horiz-adv-x="1478" d="M53 0l531 1493h340l516 -1493h-316l-98 301h-559l-100 -301h-314zM365 1612l266 276h262l254 -276h-193l-200 143l-203 -143h-186zM369 2206h338l155 -277h-217zM553 557h389l-194 584z" />
<glyph unicode="&#x1ea7;" d="M57 299q0 148 79 226t247 108l115 20q25 4 65.5 10t58.5 9t43 11t35.5 19.5t18.5 31t8 48.5q0 111 -166 111q-105 0 -148.5 -33t-54.5 -119h-276q27 383 473 383q224 0 338.5 -85.5t114.5 -254.5v-614q0 -43 13.5 -71.5t51.5 -63.5v-35h-311q-33 40 -33 139 q-151 -157 -336 -157q-146 0 -241 81.5t-95 235.5zM166 1225l266 276h262l254 -276h-192l-201 143l-203 -143h-186zM170 1819h338l156 -277h-218zM344 332q0 -119 156 -119q109 0 168 67.5t59 192.5v49q-27 -13 -47 -19t-74 -16l-98 -18q-92 -18 -128 -46.5t-36 -90.5z" />
<glyph unicode="&#x1ea8;" horiz-adv-x="1478" d="M53 0l531 1493h340l516 -1493h-316l-98 301h-559l-100 -301h-314zM365 1612l266 276h262l254 -276h-193l-200 143l-203 -143h-186zM553 557h389l-194 584zM686 2111q0 99 61 146t166 47q103 0 168.5 -45.5t65.5 -116.5q0 -43 -24 -71t-89 -62q-39 -21 -49 -34t-10 -46 h-127q0 50 20.5 81t75.5 65q38 23 49 34t11 29q0 29 -25.5 48.5t-63.5 19.5q-42 0 -67 -24.5t-25 -70.5h-137z" />
<glyph unicode="&#x1ea9;" d="M57 299q0 148 79 226t247 108l115 20q25 4 65.5 10t58.5 9t43 11t35.5 19.5t18.5 31t8 48.5q0 111 -166 111q-105 0 -148.5 -33t-54.5 -119h-276q27 383 473 383q224 0 338.5 -85.5t114.5 -254.5v-614q0 -43 13.5 -71.5t51.5 -63.5v-35h-311q-33 40 -33 139 q-151 -157 -336 -157q-146 0 -241 81.5t-95 235.5zM166 1225l266 276h262l254 -276h-192l-201 143l-203 -143h-186zM344 332q0 -119 156 -119q109 0 168 67.5t59 192.5v49q-27 -13 -47 -19t-74 -16l-98 -18q-92 -18 -128 -46.5t-36 -90.5zM487 1724q0 98 61.5 145.5 t166.5 47.5q102 0 167.5 -45.5t65.5 -116.5q0 -43 -24 -71t-88 -62q-39 -21 -49.5 -34t-10.5 -46h-127q0 50 20.5 81t75.5 65q38 23 49 34t11 29q0 29 -25 48.5t-63 19.5q-42 0 -67 -24.5t-25 -70.5h-138z" />
<glyph unicode="&#x1eaa;" horiz-adv-x="1478" d="M53 0l531 1493h340l516 -1493h-316l-98 301h-559l-100 -301h-314zM365 1612l266 276h262l254 -276h-193l-200 143l-203 -143h-186zM395 1950q6 120 57 187t136 67q30 0 44.5 -3.5t69.5 -23.5l146 -51q28 -12 70 -12q64 0 73 98h129q-12 -260 -194 -260q-48 0 -113 24 l-145 54q-37 12 -62 12q-37 0 -55.5 -21t-26.5 -71h-129zM553 557h389l-194 584z" />
<glyph unicode="&#x1eab;" d="M57 299q0 148 79 226t247 108l115 20q25 4 65.5 10t58.5 9t43 11t35.5 19.5t18.5 31t8 48.5q0 111 -166 111q-105 0 -148.5 -33t-54.5 -119h-276q27 383 473 383q224 0 338.5 -85.5t114.5 -254.5v-614q0 -43 13.5 -71.5t51.5 -63.5v-35h-311q-33 40 -33 139 q-151 -157 -336 -157q-146 0 -241 81.5t-95 235.5zM166 1225l266 276h262l254 -276h-192l-201 143l-203 -143h-186zM197 1563q6 120 56.5 187t135.5 67q30 0 45 -3.5t70 -23.5l145 -51q30 -13 70 -13q65 0 74 99h129q-12 -260 -195 -260q-49 0 -113 24l-145 53 q-41 13 -61 13q-37 0 -55.5 -21t-26.5 -71h-129zM344 332q0 -119 156 -119q109 0 168 67.5t59 192.5v49q-27 -13 -47 -19t-74 -16l-98 -18q-92 -18 -128 -46.5t-36 -90.5z" />
<glyph unicode="&#x1eac;" horiz-adv-x="1478" d="M53 0l531 1493h340l516 -1493h-316l-98 301h-559l-100 -301h-314zM362 1612l267 276h262l254 -276h-193l-200 143l-203 -143h-187zM553 557h389l-194 584zM596 -133h287v-287h-287v287z" />
<glyph unicode="&#x1ead;" d="M57 299q0 148 79 226t247 108l115 20q25 4 65.5 10t58.5 9t43 11t35.5 19.5t18.5 31t8 48.5q0 111 -166 111q-105 0 -148.5 -33t-54.5 -119h-276q27 383 473 383q224 0 338.5 -85.5t114.5 -254.5v-614q0 -43 13.5 -71.5t51.5 -63.5v-35h-311q-33 40 -33 139 q-151 -157 -336 -157q-146 0 -241 81.5t-95 235.5zM209 1225l221 315h260l211 -315h-180l-168 157l-168 -157h-176zM344 332q0 -119 156 -119q109 0 168 67.5t59 192.5v49q-27 -13 -47 -19t-74 -16l-98 -18q-92 -18 -128 -46.5t-36 -90.5zM412 -133h286v-287h-286v287z" />
<glyph unicode="&#x1eae;" horiz-adv-x="1478" d="M53 0l531 1493h340l516 -1493h-316l-98 301h-559l-100 -301h-314zM385 1874h145q9 -43 64 -62.5t162 -19.5q211 0 223 82h145q-12 -123 -107 -186.5t-265 -63.5q-165 0 -264.5 61.5t-102.5 188.5zM553 557h389l-194 584zM645 1935l156 277h338l-277 -277h-217z" />
<glyph unicode="&#x1eaf;" d="M57 299q0 148 79 226t247 108l115 20q25 4 65.5 10t58.5 9t43 11t35.5 19.5t18.5 31t8 48.5q0 111 -166 111q-105 0 -148.5 -33t-54.5 -119h-276q27 383 473 383q224 0 338.5 -85.5t114.5 -254.5v-614q0 -43 13.5 -71.5t51.5 -63.5v-35h-311q-33 40 -33 139 q-151 -157 -336 -157q-146 0 -241 81.5t-95 235.5zM186 1487h146q9 -43 64 -62.5t161 -19.5q211 0 223 82h146q-12 -123 -107 -186.5t-266 -63.5q-165 0 -264.5 61.5t-102.5 188.5zM344 332q0 -119 156 -119q109 0 168 67.5t59 192.5v49q-27 -13 -47 -19t-74 -16l-98 -18 q-92 -18 -128 -46.5t-36 -90.5zM446 1548l156 277h338l-276 -277h-218z" />
<glyph unicode="&#x1eb0;" horiz-adv-x="1478" d="M53 0l531 1493h340l516 -1493h-316l-98 301h-559l-100 -301h-314zM369 2212h338l155 -277h-217zM385 1874h145q9 -43 64 -62.5t162 -19.5q211 0 223 82h145q-12 -123 -107 -186.5t-265 -63.5q-165 0 -264.5 61.5t-102.5 188.5zM553 557h389l-194 584z" />
<glyph unicode="&#x1eb1;" d="M57 299q0 148 79 226t247 108l115 20q25 4 65.5 10t58.5 9t43 11t35.5 19.5t18.5 31t8 48.5q0 111 -166 111q-105 0 -148.5 -33t-54.5 -119h-276q27 383 473 383q224 0 338.5 -85.5t114.5 -254.5v-614q0 -43 13.5 -71.5t51.5 -63.5v-35h-311q-33 40 -33 139 q-151 -157 -336 -157q-146 0 -241 81.5t-95 235.5zM170 1825h338l156 -277h-218zM186 1487h146q9 -43 64 -62.5t161 -19.5q211 0 223 82h146q-12 -123 -107 -186.5t-266 -63.5q-165 0 -264.5 61.5t-102.5 188.5zM344 332q0 -119 156 -119q109 0 168 67.5t59 192.5v49 q-27 -13 -47 -19t-74 -16l-98 -18q-92 -18 -128 -46.5t-36 -90.5z" />
<glyph unicode="&#x1eb2;" horiz-adv-x="1478" d="M53 0l531 1493h340l516 -1493h-316l-98 301h-559l-100 -301h-314zM385 1874h145q9 -43 64 -62.5t162 -19.5q211 0 223 82h145q-12 -123 -107 -186.5t-265 -63.5q-165 0 -264.5 61.5t-102.5 188.5zM524 2036q0 98 61 145t167 47q102 0 167.5 -45.5t65.5 -116.5 q0 -43 -24 -71t-89 -62q-39 -21 -49 -34t-10 -46h-127q0 50 20.5 81t75.5 65q38 23 49 34t11 29q0 29 -25 48.5t-63 19.5q-43 0 -67.5 -24t-24.5 -70h-138zM553 557h389l-194 584z" />
<glyph unicode="&#x1eb3;" d="M57 299q0 148 79 226t247 108l115 20q25 4 65.5 10t58.5 9t43 11t35.5 19.5t18.5 31t8 48.5q0 111 -166 111q-105 0 -148.5 -33t-54.5 -119h-276q27 383 473 383q224 0 338.5 -85.5t114.5 -254.5v-614q0 -43 13.5 -71.5t51.5 -63.5v-35h-311q-33 40 -33 139 q-151 -157 -336 -157q-146 0 -241 81.5t-95 235.5zM186 1487h146q9 -43 64 -62.5t161 -19.5q211 0 223 82h146q-12 -123 -107 -186.5t-266 -63.5q-165 0 -264.5 61.5t-102.5 188.5zM326 1649q0 98 61 145t166 47q102 0 167.5 -45.5t65.5 -116.5q0 -43 -24 -71t-88 -62 q-39 -21 -49.5 -34t-10.5 -46h-127q0 50 21 81t76 65q37 23 48 34t11 29q0 29 -25 48.5t-63 19.5q-43 0 -67.5 -24t-24.5 -70h-137zM344 332q0 -119 156 -119q109 0 168 67.5t59 192.5v49q-27 -13 -47 -19t-74 -16l-98 -18q-92 -18 -128 -46.5t-36 -90.5z" />
<glyph unicode="&#x1eb4;" horiz-adv-x="1478" d="M53 0l531 1493h340l516 -1493h-316l-98 301h-559l-100 -301h-314zM385 1874h145q9 -43 64 -62.5t162 -19.5q211 0 223 82h145q-12 -123 -107 -186.5t-265 -63.5q-165 0 -264.5 61.5t-102.5 188.5zM395 1956q6 120 57 187t136 67q30 0 44.5 -3.5t69.5 -23.5l146 -51 q28 -12 70 -12q64 0 73 98h129q-12 -260 -194 -260q-48 0 -113 24l-145 54q-37 12 -62 12q-37 0 -55.5 -21t-26.5 -71h-129zM553 557h389l-194 584z" />
<glyph unicode="&#x1eb5;" d="M57 299q0 148 79 226t247 108l115 20q25 4 65.5 10t58.5 9t43 11t35.5 19.5t18.5 31t8 48.5q0 111 -166 111q-105 0 -148.5 -33t-54.5 -119h-276q27 383 473 383q224 0 338.5 -85.5t114.5 -254.5v-614q0 -43 13.5 -71.5t51.5 -63.5v-35h-311q-33 40 -33 139 q-151 -157 -336 -157q-146 0 -241 81.5t-95 235.5zM186 1487h146q9 -43 64 -62.5t161 -19.5q211 0 223 82h146q-12 -123 -107 -186.5t-266 -63.5q-165 0 -264.5 61.5t-102.5 188.5zM197 1569q6 120 56.5 187t135.5 67q30 0 45 -3.5t70 -23.5l145 -51q28 -12 70 -12 q65 0 74 98h129q-12 -260 -195 -260q-49 0 -113 24l-145 54q-38 12 -61 12q-37 0 -55.5 -21t-26.5 -71h-129zM344 332q0 -119 156 -119q109 0 168 67.5t59 192.5v49q-27 -13 -47 -19t-74 -16l-98 -18q-92 -18 -128 -46.5t-36 -90.5z" />
<glyph unicode="&#x1eb6;" horiz-adv-x="1478" d="M53 0l531 1493h340l516 -1493h-316l-98 301h-559l-100 -301h-314zM383 1874h145q9 -43 64 -62.5t162 -19.5q211 0 223 82h145q-12 -123 -107 -186.5t-265 -63.5q-165 0 -264.5 61.5t-102.5 188.5zM553 557h389l-194 584zM596 -133h287v-287h-287v287z" />
<glyph unicode="&#x1eb7;" d="M57 299q0 148 79 226t247 108l115 20q25 4 65.5 10t58.5 9t43 11t35.5 19.5t18.5 31t8 48.5q0 111 -166 111q-105 0 -148.5 -33t-54.5 -119h-276q27 383 473 383q224 0 338.5 -85.5t114.5 -254.5v-614q0 -43 13.5 -71.5t51.5 -63.5v-35h-311q-33 40 -33 139 q-151 -157 -336 -157q-146 0 -241 81.5t-95 235.5zM213 1538h164q0 -63 49.5 -97t122.5 -34t122.5 34t49.5 97h164q0 -84 -48 -155.5t-125.5 -112.5t-162.5 -41t-162.5 41t-125.5 112.5t-48 155.5zM344 332q0 -119 156 -119q109 0 168 67.5t59 192.5v49q-27 -13 -47 -19 t-74 -16l-98 -18q-92 -18 -128 -46.5t-36 -90.5zM412 -133h286v-287h-286v287z" />
<glyph unicode="&#x1eb8;" horiz-adv-x="1366" d="M162 0v1493h1079v-256h-772v-338h715v-256h-715v-387h809v-256h-1116zM541 -133h286v-287h-286v287z" />
<glyph unicode="&#x1eb9;" d="M45 539q0 277 136.5 431t375.5 154q244 0 381 -162.5t137 -449.5l-2 -35h-741q6 -153 63.5 -214.5t165.5 -61.5q185 0 219 110h283q-46 -159 -183.5 -244t-328.5 -85q-236 0 -371 146.5t-135 410.5zM336 668h440q-10 116 -69.5 176.5t-153.5 60.5q-189 0 -217 -237z M414 -133h286v-287h-286v287z" />
<glyph unicode="&#x1eba;" horiz-adv-x="1366" d="M162 0v1493h1079v-256h-772v-338h715v-256h-715v-387h809v-256h-1116zM471 1806q0 110 60.5 161.5t166.5 51.5q103 0 168.5 -50t65.5 -128q0 -47 -24 -79t-89 -70q-39 -22 -49 -36.5t-10 -51.5h-127q0 56 20.5 90t75.5 71q37 26 48 38.5t11 33.5q0 32 -25 53t-63 21 q-42 0 -67 -27t-25 -78h-137z" />
<glyph unicode="&#x1ebb;" d="M45 539q0 277 136.5 431t375.5 154q244 0 381 -162.5t137 -449.5l-2 -35h-741q6 -153 63.5 -214.5t165.5 -61.5q185 0 219 110h283q-46 -159 -183.5 -244t-328.5 -85q-236 0 -371 146.5t-135 410.5zM326 1419q0 110 60.5 161.5t166.5 51.5q103 0 168 -50t65 -128 q0 -47 -24 -79t-88 -70q-40 -23 -50 -37t-10 -51h-127q0 55 20.5 89.5t76.5 71.5q37 26 48 38.5t11 33.5q0 32 -25 53t-63 21q-42 0 -67 -27t-25 -78h-137zM336 668h440q-10 116 -69.5 176.5t-153.5 60.5q-189 0 -217 -237z" />
<glyph unicode="&#x1ebc;" horiz-adv-x="1366" d="M162 0v1493h1079v-256h-772v-338h715v-256h-715v-387h809v-256h-1116zM344 1618q6 120 57 187t136 67q29 0 44 -3.5t70 -23.5l146 -51q28 -12 69 -12q65 0 74 98h129q-12 -260 -195 -260q-45 0 -112 25l-146 53q-38 12 -61 12q-37 0 -55.5 -21t-26.5 -71h-129z" />
<glyph unicode="&#x1ebd;" d="M45 539q0 277 136.5 431t375.5 154q244 0 381 -162.5t137 -449.5l-2 -35h-741q6 -153 63.5 -214.5t165.5 -61.5q185 0 219 110h283q-46 -159 -183.5 -244t-328.5 -85q-236 0 -371 146.5t-135 410.5zM197 1251q6 120 56.5 187t135.5 67q31 0 46.5 -3.5t68.5 -22.5l145 -52 q28 -12 70 -12q65 0 74 98h129q-12 -260 -195 -260q-46 0 -113 25l-145 53q-38 12 -61 12q-37 0 -55.5 -21t-26.5 -71h-129zM336 668h440q-10 116 -69.5 176.5t-153.5 60.5q-189 0 -217 -237z" />
<glyph unicode="&#x1ebe;" horiz-adv-x="1366" d="M162 0v1493h1079v-256h-772v-338h715v-256h-715v-387h809v-256h-1116zM313 1612l267 276h262l254 -276h-193l-201 143l-202 -143h-187zM594 1929l156 277h337l-276 -277h-217z" />
<glyph unicode="&#x1ebf;" d="M45 539q0 277 136.5 431t375.5 154q244 0 381 -162.5t137 -449.5l-2 -35h-741q6 -153 63.5 -214.5t165.5 -61.5q185 0 219 110h283q-46 -159 -183.5 -244t-328.5 -85q-236 0 -371 146.5t-135 410.5zM168 1225l266 276h262l254 -276h-192l-201 143l-203 -143h-186z M336 668h440q-10 116 -69.5 176.5t-153.5 60.5q-189 0 -217 -237zM449 1542l155 277h338l-276 -277h-217z" />
<glyph unicode="&#x1ec0;" horiz-adv-x="1366" d="M162 0v1493h1079v-256h-772v-338h715v-256h-715v-387h809v-256h-1116zM313 1612l267 276h262l254 -276h-193l-201 143l-202 -143h-187zM317 2206h338l156 -277h-217z" />
<glyph unicode="&#x1ec1;" d="M45 539q0 277 136.5 431t375.5 154q244 0 381 -162.5t137 -449.5l-2 -35h-741q6 -153 63.5 -214.5t165.5 -61.5q185 0 219 110h283q-46 -159 -183.5 -244t-328.5 -85q-236 0 -371 146.5t-135 410.5zM168 1225l266 276h262l254 -276h-192l-201 143l-203 -143h-186z M172 1819h338l156 -277h-217zM336 668h440q-10 116 -69.5 176.5t-153.5 60.5q-189 0 -217 -237z" />
<glyph unicode="&#x1ec2;" horiz-adv-x="1366" d="M162 0v1493h1079v-256h-772v-338h715v-256h-715v-387h809v-256h-1116zM313 1612l267 276h262l254 -276h-193l-201 143l-202 -143h-187zM635 2111q0 99 61 146t166 47q103 0 168.5 -45.5t65.5 -116.5q0 -43 -24 -71t-89 -62q-39 -21 -49 -34t-10 -46h-127q0 50 20.5 81 t75.5 65q37 23 48 34t11 29q0 29 -25 48.5t-63 19.5q-42 0 -67 -24.5t-25 -70.5h-137z" />
<glyph unicode="&#x1ec3;" d="M45 539q0 277 136.5 431t375.5 154q244 0 381 -162.5t137 -449.5l-2 -35h-741q6 -153 63.5 -214.5t165.5 -61.5q185 0 219 110h283q-46 -159 -183.5 -244t-328.5 -85q-236 0 -371 146.5t-135 410.5zM168 1225l266 276h262l254 -276h-192l-201 143l-203 -143h-186z M336 668h440q-10 116 -69.5 176.5t-153.5 60.5q-189 0 -217 -237zM489 1724q0 98 61.5 145.5t166.5 47.5q102 0 167.5 -45.5t65.5 -116.5q0 -43 -24 -71t-88 -62q-39 -21 -49.5 -34t-10.5 -46h-127q0 50 21 81t76 65q37 23 48 34t11 29q0 29 -25 48.5t-63 19.5 q-42 0 -67 -24.5t-25 -70.5h-138z" />
<glyph unicode="&#x1ec4;" horiz-adv-x="1366" d="M162 0v1493h1079v-256h-772v-338h715v-256h-715v-387h809v-256h-1116zM313 1612l267 276h262l254 -276h-193l-201 143l-202 -143h-187zM344 1950q6 120 57 187t136 67q29 0 44 -3.5t70 -23.5l146 -51q28 -12 69 -12q65 0 74 98h129q-12 -260 -195 -260q-48 0 -112 24 l-146 54q-38 12 -61 12q-37 0 -55.5 -21t-26.5 -71h-129z" />
<glyph unicode="&#x1ec5;" d="M45 539q0 277 136.5 431t375.5 154q244 0 381 -162.5t137 -449.5l-2 -35h-741q6 -153 63.5 -214.5t165.5 -61.5q185 0 219 110h283q-46 -159 -183.5 -244t-328.5 -85q-236 0 -371 146.5t-135 410.5zM168 1225l266 276h262l254 -276h-192l-201 143l-203 -143h-186z M199 1563q6 120 56.5 187t135.5 67q30 0 45 -3.5t70 -23.5l145 -51q30 -13 70 -13q65 0 74 99h129q-12 -260 -195 -260q-49 0 -113 24l-145 53q-41 13 -61 13q-37 0 -55.5 -21t-26.5 -71h-129zM336 668h440q-10 116 -69.5 176.5t-153.5 60.5q-189 0 -217 -237z" />
<glyph unicode="&#x1ec6;" horiz-adv-x="1366" d="M162 0v1493h1079v-256h-772v-338h715v-256h-715v-387h809v-256h-1116zM311 1612l267 276h262l254 -276h-193l-201 143l-202 -143h-187zM541 -133h286v-287h-286v287z" />
<glyph unicode="&#x1ec7;" d="M45 539q0 277 136.5 431t375.5 154q244 0 381 -162.5t137 -449.5l-2 -35h-741q6 -153 63.5 -214.5t165.5 -61.5q185 0 219 110h283q-46 -159 -183.5 -244t-328.5 -85q-236 0 -371 146.5t-135 410.5zM211 1225l221 315h260l211 -315h-180l-168 157l-168 -157h-176z M336 668h440q-10 116 -69.5 176.5t-153.5 60.5q-189 0 -217 -237zM414 -133h286v-287h-286v287z" />
<glyph unicode="&#x1ec8;" horiz-adv-x="569" d="M51 1806q0 110 61 161.5t167 51.5q103 0 168 -50t65 -128q0 -47 -24 -79t-89 -70q-39 -22 -49 -36.5t-10 -51.5h-127q0 56 20.5 90t75.5 71q38 27 49 39t11 33q0 32 -25 53t-63 21q-43 0 -68 -27t-25 -78h-137zM129 0v1493h307v-1493h-307z" />
<glyph unicode="&#x1ec9;" horiz-adv-x="569" d="M53 1419q0 110 61 161.5t167 51.5q103 0 168 -50t65 -128q0 -47 -24 -79t-89 -70q-39 -22 -49 -36.5t-10 -51.5h-127q0 56 20.5 90t75.5 71q38 27 49 39t11 33q0 32 -25 53t-63 21q-43 0 -68 -27t-25 -78h-137zM137 0v1106h287v-1106h-287z" />
<glyph unicode="&#x1eca;" horiz-adv-x="569" d="M129 0v1493h307v-1493h-307zM139 -133h287v-287h-287v287z" />
<glyph unicode="&#x1ecb;" horiz-adv-x="569" d="M137 0v1106h287v-1106h-287zM141 -133h287v-287h-287v287zM141 1239v287h287v-287h-287z" />
<glyph unicode="&#x1ecc;" horiz-adv-x="1593" d="M82 748q0 128 32 244.5t94.5 212t148.5 165.5t199.5 109t242.5 39q214 0 379 -101t253.5 -278.5t88.5 -401.5q0 -217 -88.5 -390t-253 -272.5t-377.5 -99.5q-215 0 -379.5 100t-252 275.5t-87.5 397.5zM389 748q0 -234 112.5 -372t299.5 -138q185 0 298 136.5t113 364.5 q0 234 -111.5 375t-299.5 141q-185 0 -298.5 -140.5t-113.5 -366.5zM655 -133h287v-287h-287v287z" />
<glyph unicode="&#x1ecd;" horiz-adv-x="1251" d="M72 553q0 270 144.5 420.5t399.5 150.5q261 0 405 -150t144 -429q0 -264 -147 -413.5t-400 -149.5q-257 0 -401.5 149.5t-144.5 421.5zM358 553q0 -157 71 -248.5t189 -91.5q117 0 189 91t72 245q0 161 -70.5 252.5t-190.5 91.5q-118 0 -189 -91.5t-71 -248.5zM483 -133 h287v-287h-287v287z" />
<glyph unicode="&#x1ece;" horiz-adv-x="1593" d="M82 748q0 128 32 244.5t94.5 212t148.5 165.5t199.5 109t242.5 39q214 0 379 -101t253.5 -278.5t88.5 -401.5q0 -217 -88.5 -390t-253 -272.5t-377.5 -99.5q-215 0 -379.5 100t-252 275.5t-87.5 397.5zM389 748q0 -234 112.5 -372t299.5 -138q185 0 298 136.5t113 364.5 q0 234 -111.5 375t-299.5 141q-185 0 -298.5 -140.5t-113.5 -366.5zM567 1806q0 110 61 161.5t167 51.5q103 0 168 -50t65 -128q0 -47 -24 -79t-89 -70q-39 -22 -49 -36.5t-10 -51.5h-127q0 56 20.5 90t75.5 71q38 27 49 39t11 33q0 32 -25 53t-63 21q-42 0 -67 -27t-25 -78 h-138z" />
<glyph unicode="&#x1ecf;" horiz-adv-x="1251" d="M72 553q0 270 144.5 420.5t399.5 150.5q261 0 405 -150t144 -429q0 -264 -147 -413.5t-400 -149.5q-257 0 -401.5 149.5t-144.5 421.5zM358 553q0 -157 71 -248.5t189 -91.5q117 0 189 91t72 245q0 161 -70.5 252.5t-190.5 91.5q-118 0 -189 -91.5t-71 -248.5zM395 1419 q0 110 61 161.5t167 51.5q103 0 168 -50t65 -128q0 -47 -24 -79t-89 -70q-39 -22 -49 -36.5t-10 -51.5h-127q0 56 20.5 90t75.5 71q38 27 49 39t11 33q0 32 -25 53t-63 21q-43 0 -68 -27t-25 -78h-137z" />
<glyph unicode="&#x1ed0;" horiz-adv-x="1593" d="M82 748q0 128 32 244.5t94.5 212t148.5 165.5t199.5 109t242.5 39q214 0 379 -101t253.5 -278.5t88.5 -401.5q0 -217 -88.5 -390t-253 -272.5t-377.5 -99.5q-215 0 -379.5 100t-252 275.5t-87.5 397.5zM389 748q0 -234 112.5 -372t299.5 -138q185 0 298 136.5t113 364.5 q0 234 -111.5 375t-299.5 141q-185 0 -298.5 -140.5t-113.5 -366.5zM410 1612l266 276h262l254 -276h-193l-200 143l-203 -143h-186zM690 1929l156 277h338l-277 -277h-217z" />
<glyph unicode="&#x1ed1;" horiz-adv-x="1251" d="M72 553q0 270 144.5 420.5t399.5 150.5q261 0 405 -150t144 -429q0 -264 -147 -413.5t-400 -149.5q-257 0 -401.5 149.5t-144.5 421.5zM236 1225l266 276h262l254 -276h-193l-200 143l-203 -143h-186zM358 553q0 -157 71 -248.5t189 -91.5q117 0 189 91t72 245 q0 161 -70.5 252.5t-190.5 91.5q-118 0 -189 -91.5t-71 -248.5zM516 1542l156 277h338l-277 -277h-217z" />
<glyph unicode="&#x1ed2;" horiz-adv-x="1593" d="M82 748q0 128 32 244.5t94.5 212t148.5 165.5t199.5 109t242.5 39q214 0 379 -101t253.5 -278.5t88.5 -401.5q0 -217 -88.5 -390t-253 -272.5t-377.5 -99.5q-215 0 -379.5 100t-252 275.5t-87.5 397.5zM389 748q0 -234 112.5 -372t299.5 -138q185 0 298 136.5t113 364.5 q0 234 -111.5 375t-299.5 141q-185 0 -298.5 -140.5t-113.5 -366.5zM410 1612l266 276h262l254 -276h-193l-200 143l-203 -143h-186zM414 2206h338l155 -277h-217z" />
<glyph unicode="&#x1ed3;" horiz-adv-x="1251" d="M72 553q0 270 144.5 420.5t399.5 150.5q261 0 405 -150t144 -429q0 -264 -147 -413.5t-400 -149.5q-257 0 -401.5 149.5t-144.5 421.5zM236 1225l266 276h262l254 -276h-193l-200 143l-203 -143h-186zM240 1819h338l155 -277h-217zM358 553q0 -157 71 -248.5t189 -91.5 q117 0 189 91t72 245q0 161 -70.5 252.5t-190.5 91.5q-118 0 -189 -91.5t-71 -248.5z" />
<glyph unicode="&#x1ed4;" horiz-adv-x="1593" d="M82 748q0 128 32 244.5t94.5 212t148.5 165.5t199.5 109t242.5 39q214 0 379 -101t253.5 -278.5t88.5 -401.5q0 -217 -88.5 -390t-253 -272.5t-377.5 -99.5q-215 0 -379.5 100t-252 275.5t-87.5 397.5zM389 748q0 -234 112.5 -372t299.5 -138q185 0 298 136.5t113 364.5 q0 234 -111.5 375t-299.5 141q-185 0 -298.5 -140.5t-113.5 -366.5zM410 1612l266 276h262l254 -276h-193l-200 143l-203 -143h-186zM731 2111q0 99 61 146t166 47q103 0 168.5 -45.5t65.5 -116.5q0 -43 -24 -71t-89 -62q-39 -21 -49 -34t-10 -46h-127q0 50 20.5 81t75.5 65 q38 23 49 34t11 29q0 29 -25 48.5t-63 19.5q-42 0 -67.5 -24.5t-25.5 -70.5h-137z" />
<glyph unicode="&#x1ed5;" horiz-adv-x="1251" d="M72 553q0 270 144.5 420.5t399.5 150.5q261 0 405 -150t144 -429q0 -264 -147 -413.5t-400 -149.5q-257 0 -401.5 149.5t-144.5 421.5zM236 1225l266 276h262l254 -276h-193l-200 143l-203 -143h-186zM358 553q0 -157 71 -248.5t189 -91.5q117 0 189 91t72 245 q0 161 -70.5 252.5t-190.5 91.5q-118 0 -189 -91.5t-71 -248.5zM557 1724q0 99 61 146t166 47q103 0 168.5 -45.5t65.5 -116.5q0 -43 -24 -71t-89 -62q-39 -21 -49 -34t-10 -46h-127q0 50 20.5 81t75.5 65q37 23 48 34t11 29q0 29 -25 48.5t-63 19.5q-42 0 -67 -24.5 t-25 -70.5h-137z" />
<glyph unicode="&#x1ed6;" horiz-adv-x="1593" d="M82 748q0 128 32 244.5t94.5 212t148.5 165.5t199.5 109t242.5 39q214 0 379 -101t253.5 -278.5t88.5 -401.5q0 -217 -88.5 -390t-253 -272.5t-377.5 -99.5q-215 0 -379.5 100t-252 275.5t-87.5 397.5zM389 748q0 -234 112.5 -372t299.5 -138q185 0 298 136.5t113 364.5 q0 234 -111.5 375t-299.5 141q-185 0 -298.5 -140.5t-113.5 -366.5zM410 1612l266 276h262l254 -276h-193l-200 143l-203 -143h-186zM440 1950q6 120 57 187t136 67q30 0 45 -3.5t70 -23.5l145 -51q28 -12 70 -12q64 0 73 98h129q-12 -260 -194 -260q-49 0 -113 24l-145 54 q-38 12 -62 12q-37 0 -55.5 -21t-26.5 -71h-129z" />
<glyph unicode="&#x1ed7;" horiz-adv-x="1251" d="M72 553q0 270 144.5 420.5t399.5 150.5q261 0 405 -150t144 -429q0 -264 -147 -413.5t-400 -149.5q-257 0 -401.5 149.5t-144.5 421.5zM236 1225l266 276h262l254 -276h-193l-200 143l-203 -143h-186zM266 1563q6 120 57 187t136 67q29 0 44 -3.5t70 -23.5l146 -51 q30 -13 69 -13q65 0 74 99h129q-12 -260 -194 -260q-49 0 -113 24l-145 53q-41 13 -62 13q-37 0 -55.5 -21t-26.5 -71h-129zM358 553q0 -157 71 -248.5t189 -91.5q117 0 189 91t72 245q0 161 -70.5 252.5t-190.5 91.5q-118 0 -189 -91.5t-71 -248.5z" />
<glyph unicode="&#x1ed8;" horiz-adv-x="1593" d="M82 748q0 128 32 244.5t94.5 212t148.5 165.5t199.5 109t242.5 39q214 0 379 -101t253.5 -278.5t88.5 -401.5q0 -217 -88.5 -390t-253 -272.5t-377.5 -99.5q-215 0 -379.5 100t-252 275.5t-87.5 397.5zM389 748q0 -234 112.5 -372t299.5 -138q185 0 298 136.5t113 364.5 q0 234 -111.5 375t-299.5 141q-185 0 -298.5 -140.5t-113.5 -366.5zM408 1612l266 276h262l254 -276h-193l-200 143l-203 -143h-186zM655 -133h287v-287h-287v287z" />
<glyph unicode="&#x1ed9;" horiz-adv-x="1251" d="M72 553q0 270 144.5 420.5t399.5 150.5q261 0 405 -150t144 -429q0 -264 -147 -413.5t-400 -149.5q-257 0 -401.5 149.5t-144.5 421.5zM281 1225l221 315h260l211 -315h-180l-168 157l-168 -157h-176zM358 553q0 -157 71 -248.5t189 -91.5q117 0 189 91t72 245 q0 161 -70.5 252.5t-190.5 91.5q-118 0 -189 -91.5t-71 -248.5zM483 -133h287v-287h-287v287z" />
<glyph unicode="&#x1eda;" horiz-adv-x="1662" d="M82 750q0 166 54 309.5t155 251.5q192 207 508 207q320 0 512 -207q30 -34 47 -58q115 97 115 240h-134v256h277v-223q0 -256 -186 -389q90 -191 90 -398q0 -158 -56 -310t-153 -255q-94 -101 -219.5 -146.5t-290.5 -45.5t-290.5 45.5t-219.5 146.5q-99 105 -154 256.5 t-55 319.5zM389 750q0 -233 112.5 -369.5t299.5 -136.5q186 0 298.5 135t112.5 362q0 241 -110.5 377.5t-300.5 136.5q-187 0 -299.5 -136t-112.5 -369zM692 1610l156 276h338l-277 -276h-217z" />
</font>
</defs>
</svg>
