<?xml version="1.0" standalone="no"?>
<!DOCTYPE svg PUBLIC "-//W3C//DTD SVG 1.1//EN" "http://www.w3.org/Graphics/SVG/1.1/DTD/svg11.dtd" >
<svg xmlns="http://www.w3.org/2000/svg">
<metadata></metadata>
<defs>
<font id="PTSansNR" horiz-adv-x="921" >
<font-face units-per-em="2048" ascent="1577" descent="-471" />
<missing-glyph horiz-adv-x="434" />
<glyph horiz-adv-x="0" />
<glyph horiz-adv-x="2048" />
<glyph unicode=" "  horiz-adv-x="434" />
<glyph unicode="&#x09;" horiz-adv-x="434" />
<glyph unicode="&#xa0;" horiz-adv-x="434" />
<glyph unicode="!" horiz-adv-x="505" d="M180 92q0 56 27.5 85.5t75.5 29.5t75 -29.5t27 -85.5q0 -117 -102 -117q-49 0 -76 29.5t-27 87.5zM207 723v711h153v-711l-30 -361h-92z" />
<glyph unicode="&#x22;" horiz-adv-x="585" d="M147 1038v396h142l-53 -396h-89zM362 1038v396h142l-53 -396h-89z" />
<glyph unicode="#" d="M49 461l27 123h125l55 286h-125l27 123h123l61 322h125l-61 -322h167l64 322h125l-62 -322h125l-28 -123h-121l-55 -286h122l-28 -123h-117l-66 -342h-126l65 342h-168l-65 -342h-125l65 342h-129zM326 584h170l55 286h-170z" />
<glyph unicode="$" d="M129 37l47 139q81 -59 225 -67v581q-48 31 -81 55t-71.5 63t-62 79.5t-39.5 99t-16 125.5q0 137 69.5 227t200.5 113v186h125v-182q152 -9 234 -49l-47 -133q-78 42 -187 49v-528q53 -36 83.5 -59.5t74 -65.5t67 -81.5t41 -97.5t17.5 -124q0 -149 -74 -250.5t-209 -130.5 v-191h-125v180q-193 10 -272 62zM285 1118q0 -85 37.5 -144t111.5 -114v459q-79 -16 -114 -71.5t-35 -129.5zM494 117q76 18 118.5 78.5t42.5 160.5q0 90 -41.5 152t-119.5 119v-510z" />
<glyph unicode="%" horiz-adv-x="1304" d="M113 1110q0 181 70.5 264.5t191.5 83.5q262 0 262 -348t-262 -348t-262 348zM188 37l873 1423l96 -61l-872 -1424zM246 1110q0 -236 129 -236q41 0 67.5 18.5t43 72t16.5 145.5q0 133 -32.5 184.5t-94.5 51.5q-65 0 -97 -51.5t-32 -184.5zM715 350q0 181 70.5 264.5 t191.5 83.5q262 0 262 -348t-262 -348t-262 348zM848 350q0 -235 129 -235q63 0 95 50.5t32 184.5q0 133 -32.5 184.5t-94.5 51.5q-65 0 -97 -51.5t-32 -184.5z" />
<glyph unicode="&#x26;" horiz-adv-x="1343" d="M186 385q0 79 24 153.5t66.5 137t90 112t104.5 93.5q-102 182 -102 315q0 51 14 96.5t42.5 83.5t78 60t114.5 22q67 0 117 -19.5t78 -53.5t41.5 -74.5t13.5 -87.5q0 -187 -223 -361q52 -114 131.5 -245t157.5 -234q35 48 68 132.5t55 170.5l119 -47q-24 -78 -72 -188.5 t-86 -167.5q67 -79 113 -124t94 -77l-92 -107q-94 54 -201 191q-151 -191 -361 -191q-169 0 -277 106.5t-108 303.5zM334 387q0 -130 74 -204t182 -74q74 0 145.5 47.5t110.5 109.5q-91 115 -177 258.5t-132 251.5q-66 -63 -105.5 -111.5t-68.5 -121t-29 -156.5zM516 1196 q0 -102 70 -242q147 125 147 238q0 141 -108 141q-55 0 -82 -37t-27 -100z" />
<glyph unicode="'" horiz-adv-x="370" d="M147 1038v396h142l-53 -396h-89z" />
<glyph unicode="(" horiz-adv-x="477" d="M98 498q0 252 67.5 508t213.5 452l92 -55q-82 -131 -134.5 -296t-71.5 -311t-19 -298q0 -223 56.5 -470.5t168.5 -416.5l-96 -62q-144 181 -210.5 436t-66.5 513z" />
<glyph unicode=")" horiz-adv-x="477" d="M98 -389q112 169 169 416.5t57 470.5q0 235 -53.5 472.5t-172.5 432.5l92 55q146 -196 213.5 -452t67.5 -508q0 -255 -67 -509.5t-209 -439.5z" />
<glyph unicode="*" horiz-adv-x="595" d="M61 1137v104h91l102 -22l-78 84l-45 83l90 54l41 -78l31 -107l33 107l43 76l90 -49l-47 -82l-78 -88l112 22h86v-104h-79l-111 22l80 -90l41 -72l-88 -51l-43 78l-39 113l-31 -109l-43 -76l-90 52l47 77l72 78l-96 -22h-91z" />
<glyph unicode="+" horiz-adv-x="849" d="M72 627v137h282v319h140v-319h282v-137h-282v-320h-140v320h-282z" />
<glyph unicode="," horiz-adv-x="380" d="M63 -231q56 30 88.5 89t32.5 124q-43 -13 -76.5 17t-33.5 89q0 51 29.5 82t76.5 31q56 0 88.5 -44.5t32.5 -133.5q0 -124 -57 -209.5t-129 -114.5z" />
<glyph unicode="-" horiz-adv-x="595" d="M96 514v141h404v-141h-404z" />
<glyph unicode="." horiz-adv-x="364" d="M80 92q0 56 27 85.5t75 29.5t75.5 -29.5t27.5 -85.5q0 -58 -27 -87.5t-76 -29.5q-102 0 -102 117z" />
<glyph unicode="/" horiz-adv-x="604" d="M-57 -244l602 1702l114 -45l-598 -1700z" />
<glyph unicode="0" d="M78 717q0 386 96 563.5t287 177.5q200 0 291.5 -174.5t91.5 -566.5q0 -260 -44.5 -426.5t-128 -241t-208.5 -74.5q-201 0 -293 177t-92 565zM231 717q0 -608 234 -608q119 0 173 144.5t54 463.5q0 302 -54 455t-177 153q-119 0 -174.5 -144.5t-55.5 -463.5z" />
<glyph unicode="1" d="M123 1110l373 348h75v-1321h224v-137h-602v137h231v998l18 120l-69 -98l-172 -139z" />
<glyph unicode="2" d="M113 0v66q68 81 144.5 195t157 257.5t133 298.5t52.5 277q0 106 -48.5 166.5t-139.5 60.5q-116 0 -213 -76l-58 109q55 49 135 76.5t168 27.5q149 0 229.5 -91t80.5 -247q0 -140 -58.5 -316t-136.5 -319.5t-168 -269.5l-82 -90v-6l109 18h358v-137h-663z" />
<glyph unicode="3" d="M150 23l40 133q77 -47 205 -47q110 0 181 86t71 221q0 291 -252 291h-123v59l238 459l80 86l-113 -15h-321v138h594v-60l-263 -489l-61 -60v-4l59 13q135 0 222.5 -105t87.5 -293q0 -214 -114.5 -337.5t-285.5 -123.5q-147 0 -245 48z" />
<glyph unicode="4" d="M41 440v70l543 946h108v-883h191v-133h-191v-440h-147v440h-504zM199 559l112 14h234v459l24 176h-6l-61 -157l-226 -392z" />
<glyph unicode="5" d="M131 14l37 131q63 -32 186 -32q119 0 191 85.5t73 237.5q-1 155 -72.5 232t-203.5 77l-135 -10v699h524v-144h-389v-418l70 7q166 -2 259.5 -113.5t94.5 -316.5q-4 -222 -118.5 -348t-289.5 -126q-145 0 -227 39z" />
<glyph unicode="6" d="M104 481q0 211 44 386t121 295.5t178 195.5t219 100l41 -119q-180 -49 -299.5 -218.5t-149.5 -405.5q28 59 92 98t152 39q151 0 238.5 -107t88.5 -313q-5 -210 -98 -333.5t-260 -123.5q-175 0 -271 127t-96 379zM250 459q-5 -143 54 -246.5t167 -103.5q94 0 151.5 82.5 t57.5 226.5q0 301 -217 301q-73 0 -129.5 -46.5t-81.5 -113.5q-6 -36 -2 -100z" />
<glyph unicode="7" d="M115 1292v142h698v-56l-471 -1378h-147l413 1210l74 101l-98 -19h-469z" />
<glyph unicode="8" d="M119 332q0 133 55 230t168 177q-46 34 -78 66t-61 75.5t-43.5 98t-14.5 121.5q0 166 87 262t239 96q142 0 224.5 -86.5t82.5 -238.5q0 -116 -44 -206t-142 -177q102 -73 157.5 -162t55.5 -228q0 -175 -94 -280t-258 -105q-155 0 -244.5 99t-89.5 258zM260 354 q0 -108 53 -176.5t148 -68.5q85 0 140.5 61t55.5 182q0 60 -17 110.5t-51.5 90.5t-67.5 67.5t-83 61.5q-90 -66 -134 -151.5t-44 -176.5zM289 1104q0 -53 15.5 -98t47 -81.5t63.5 -63.5t79 -58q72 72 107.5 143t35.5 154q0 107 -48 166t-120 59q-83 0 -131.5 -63.5 t-48.5 -157.5z" />
<glyph unicode="9" d="M94 999q0 217 93 338t270 121q175 0 268.5 -129t93.5 -387q0 -224 -42.5 -400.5t-119.5 -292t-177 -183.5t-222 -91l-39 121q192 50 302.5 202.5t140.5 391.5q-43 -60 -95 -84t-139 -24q-140 0 -237 108.5t-97 308.5zM244 1016q0 -144 58.5 -222.5t158.5 -78.5 q76 0 130.5 32.5t80.5 88.5q4 23 4 98q0 108 -23 194t-75.5 141.5t-128.5 55.5q-96 0 -150.5 -83.5t-54.5 -225.5z" />
<glyph unicode=":" horiz-adv-x="421" d="M156 92q0 56 27 85.5t75 29.5t75 -29.5t27 -85.5q0 -117 -102 -117t-102 117zM156 918q0 56 27 85t75 29t75 -29t27 -85q0 -117 -102 -117t-102 117z" />
<glyph unicode=";" horiz-adv-x="442" d="M143 -231q56 30 88.5 89t32.5 124q-43 -13 -76.5 17t-33.5 89q0 51 29.5 82t76.5 31q56 0 88.5 -44.5t32.5 -133.5q0 -124 -57 -209.5t-129 -114.5zM174 918q0 56 27 85t75 29t75.5 -29t27.5 -85q0 -58 -27 -87.5t-76 -29.5q-102 0 -102 117z" />
<glyph unicode="&#x3c;" horiz-adv-x="849" d="M74 625v59l614 457l80 -111l-391 -297l-152 -78l150 -65l401 -295l-78 -111z" />
<glyph unicode="=" horiz-adv-x="849" d="M72 459v137h704v-137h-704zM72 797v137h704v-137h-704z" />
<glyph unicode="&#x3e;" horiz-adv-x="849" d="M74 1032l82 109l620 -436v-60l-610 -457l-84 109l393 297l150 78l-148 65z" />
<glyph unicode="?" horiz-adv-x="733" d="M66 1364q140 94 311 94q146 0 222.5 -84.5t76.5 -236.5q0 -83 -22.5 -157.5t-55.5 -127.5t-72.5 -112t-72.5 -110t-55.5 -121.5t-22.5 -146.5h-123q-5 73 7 138.5t35.5 115.5t53 97t60.5 92t56.5 90.5t41.5 102.5t16 118q0 209 -180 209q-115 0 -219 -76zM221 92 q0 56 27.5 85.5t75.5 29.5t75 -29.5t27 -85.5q0 -117 -102 -117q-49 0 -76 29.5t-27 87.5z" />
<glyph unicode="@" horiz-adv-x="1755" d="M139 483q0 206 62 377t168.5 283.5t247 174.5t298.5 62q152 0 279.5 -46t222 -133.5t147 -224t52.5 -308.5q0 -184 -62.5 -336.5t-167.5 -238t-229 -85.5q-179 0 -149 211h-9q-49 -90 -124 -150.5t-160 -60.5q-90 0 -148.5 79t-58.5 220q0 199 57.5 364t155.5 258t215 93 q56 0 93.5 -18.5t76.5 -57.5l51 60h68l-84 -596q-21 -136 -11.5 -203.5t60.5 -67.5q54 0 106.5 36t94.5 101t68 167.5t26 224.5q0 283 -156 435t-420 152q-132 0 -249 -55t-203.5 -152.5t-136.5 -240.5t-50 -311q0 -174 46 -309t130 -220.5t198.5 -129.5t254.5 -44 q54 0 117 13t108 36l37 -114q-128 -60 -282 -60q-122 0 -230.5 29.5t-202.5 94t-161.5 158.5t-106.5 230.5t-39 302.5zM649 342q0 -201 121 -201q57 0 125 76.5t113 175.5l55 426q-27 38 -55 54t-68 16q-80 0 -147.5 -78.5t-105.5 -204t-38 -264.5z" />
<glyph unicode="A" horiz-adv-x="968" d="M10 0l432 1456h84l432 -1456h-159l-117 401h-406l-114 -401h-152zM317 539h328l-125 442l-39 215h-4l-39 -219z" />
<glyph unicode="B" horiz-adv-x="964" d="M131 10v1411q149 29 324 29q62 0 113 -7.5t103.5 -30.5t88.5 -59.5t59 -99t23 -145.5q0 -73 -21 -140.5t-71.5 -125t-122.5 -80.5v-8q110 -23 180 -106.5t70 -239.5q0 -108 -34.5 -191t-95.5 -133t-138.5 -75t-168.5 -25q-220 0 -309 26zM285 139q43 -14 168 -14 q114 0 188 71.5t74 200.5q0 80 -24.5 135t-68.5 82.5t-92 38.5t-108 11h-137v-525zM285 797h84q83 0 127 8q80 33 132 103t52 165q0 236 -234 236q-104 0 -161 -11v-501z" />
<glyph unicode="C" horiz-adv-x="937" d="M88 717q0 159 27.5 286.5t74.5 211t112 139.5t136.5 80t151.5 24q160 0 274 -49l-37 -139q-83 47 -223 47q-74 0 -135.5 -32.5t-111.5 -101t-78.5 -187.5t-28.5 -279q0 -293 100.5 -446.5t274.5 -153.5q124 0 219 65l37 -127q-95 -80 -293 -80q-112 0 -201.5 42 t-157.5 129t-104.5 231.5t-36.5 339.5z" />
<glyph unicode="D" horiz-adv-x="1075" d="M131 -2v1436q88 16 309 16q547 0 547 -723q0 -123 -17 -229t-58 -202.5t-104 -164.5t-161 -108.5t-223 -40.5q-64 0 -161 4.5t-132 11.5zM285 131q31 -8 151 -8q389 0 389 606q0 93 -9.5 172t-35.5 156.5t-67.5 131.5t-108.5 87t-155 33q-103 0 -164 -11v-1167z" />
<glyph unicode="E" horiz-adv-x="878" d="M131 0v1434h637v-142h-483v-485h444v-141h-444v-525h493v-141h-647z" />
<glyph unicode="F" horiz-adv-x="845" d="M131 0v1434h637v-142h-483v-506h450v-141h-450v-645h-154z" />
<glyph unicode="G" horiz-adv-x="1007" d="M88 717q0 155 28.5 281t77 210.5t115 141.5t140.5 82.5t155 25.5q179 0 279 -49l-37 -139q-83 47 -228 47q-74 0 -137.5 -31.5t-116.5 -99t-83.5 -187.5t-30.5 -282q0 -301 95 -450.5t269 -149.5q109 0 177 51v418l-265 39v90h396v-631q-55 -52 -144.5 -80.5 t-185.5 -28.5q-237 0 -370.5 183.5t-133.5 558.5z" />
<glyph unicode="H" horiz-adv-x="1097" d="M131 0v1434h154v-631h528v631h154v-1434h-154v662h-528v-662h-154z" />
<glyph unicode="I" horiz-adv-x="477" d="M162 0v1434h153v-1434h-153z" />
<glyph unicode="J" horiz-adv-x="493" d="M-53 12l33 133q41 -24 98 -24q69 0 90.5 55t21.5 174v1084h154v-1112q0 -173 -56.5 -257.5t-187.5 -84.5q-99 0 -153 32z" />
<glyph unicode="K" horiz-adv-x="1009" d="M131 0v1434h154v-668l71 29l373 639h176l-375 -619l-71 -65l84 -82l415 -668h-194l-406 664h-73v-664h-154z" />
<glyph unicode="L" horiz-adv-x="849" d="M131 0v1434h154v-1293h536v-141h-690z" />
<glyph unicode="M" horiz-adv-x="1304" d="M131 0v1434h129l346 -705l51 -168h5l49 170l327 703h136v-1434h-154v942l18 217h-8l-65 -203l-289 -622h-51l-303 622l-64 203h-8l29 -217v-942h-148z" />
<glyph unicode="N" horiz-adv-x="1101" d="M131 0v1456h92l531 -930l84 -215h8l-23 215v908h148v-1457h-94l-527 932l-88 226h-6l23 -226v-909h-148z" />
<glyph unicode="O" horiz-adv-x="1124" d="M88 717q0 741 473 741q475 0 475 -741q0 -366 -118.5 -554t-356.5 -188q-473 0 -473 742zM250 717q0 -98 10.5 -185t34.5 -164t60 -132t88.5 -87t117.5 -32q313 0 313 600q0 123 -17.5 228t-53.5 190t-98 133.5t-144 48.5q-311 0 -311 -600z" />
<glyph unicode="P" horiz-adv-x="923" d="M131 0v1419q109 31 285 31q70 0 130.5 -11t121 -41.5t103 -78.5t69 -127t26.5 -182q0 -124 -37 -218t-101.5 -148t-142 -80.5t-167.5 -26.5q-100 0 -133 8v-545h-154zM285 686q16 -8 123 -8q61 0 111 15.5t93.5 51t68 103t24.5 162.5q0 83 -22.5 143t-63 93t-89 48 t-106.5 15q-89 0 -139 -13v-610z" />
<glyph unicode="Q" horiz-adv-x="1124" d="M88 717q0 741 473 741q475 0 475 -741q0 -366 -118.5 -554t-356.5 -188q-473 0 -473 742zM250 717q0 -98 10.5 -185t34.5 -164t60 -132t88.5 -87t117.5 -32q313 0 313 600q0 123 -17.5 228t-53.5 190t-98 133.5t-144 48.5q-311 0 -311 -600zM348 -102q47 12 90 12 q60 0 136 -20.5t138.5 -45t145 -45t154.5 -20.5q77 0 147 20v-139q-76 -25 -155 -25q-74 0 -161 21.5t-152 46.5t-140 46.5t-129 21.5q-33 0 -74 -13v140z" />
<glyph unicode="R" horiz-adv-x="983" d="M131 0v1419q121 31 297 31q84 0 152 -20t123.5 -64t86.5 -122.5t31 -186.5q0 -166 -68.5 -270t-189.5 -140l78 -76l283 -571h-179l-307 625l-153 30v-655h-154zM285 758h123q120 0 185.5 73t65.5 218q0 116 -58 188t-165 72q-101 0 -151 -13v-538z" />
<glyph unicode="S" horiz-adv-x="876" d="M68 49l53 141q44 -30 115 -51.5t155 -21.5q120 0 189 58t69 175q0 65 -30.5 121.5t-79 99.5t-107 84t-117.5 86.5t-107.5 96.5t-79 123.5t-30.5 158.5q0 167 100.5 252.5t272.5 85.5q201 0 311 -65l-49 -136q-95 60 -264 60q-106 0 -161.5 -52.5t-55.5 -138.5 q0 -58 30.5 -110t79 -94t107 -84t117.5 -89.5t107.5 -101t79 -127.5t30.5 -160q0 -181 -107 -283t-301 -102q-207 0 -327 74z" />
<glyph unicode="T" horiz-adv-x="915" d="M29 1292v142h858v-142h-352v-1292h-154v1292h-352z" />
<glyph unicode="U" horiz-adv-x="1067" d="M131 440v994h154v-914q0 -219 60.5 -308t203.5 -89q133 0 186 92t53 305v914h148v-961q0 -253 -99 -372t-290 -119q-216 0 -316 111.5t-100 346.5z" />
<glyph unicode="V" horiz-adv-x="948" d="M-4 1434h170l280 -981l37 -220h4l41 224l267 977h157l-434 -1457h-82z" />
<glyph unicode="W" horiz-adv-x="1376" d="M10 1434h166l197 -949l24 -239h4l25 243l229 945h88l230 -947l24 -241h2l29 243l182 945h154l-320 -1457h-94l-227 945l-29 219h-6l-29 -221l-227 -943h-96z" />
<glyph unicode="X" horiz-adv-x="1024" d="M39 0l377 729l-344 705h184l223 -486l41 -121l41 121l236 486h170l-357 -691l373 -743h-180l-248 514l-47 127l-43 -127l-254 -514h-172z" />
<glyph unicode="Y" horiz-adv-x="931" d="M10 1434h180l259 -625l26 -125h4l27 129l250 621h166l-377 -863v-571h-154v569z" />
<glyph unicode="Z" horiz-adv-x="899" d="M59 0v141l570 1069l67 82h-637v142h781v-142l-572 -1075l-65 -76h637v-141h-781z" />
<glyph unicode="[" horiz-adv-x="507" d="M131 -471v1905h320v-134h-172v-1638h172v-133h-320z" />
<glyph unicode="\" horiz-adv-x="647" d="M-57 1411l125 47l608 -1698l-123 -47z" />
<glyph unicode="]" horiz-adv-x="507" d="M59 -338h170v1638h-170v134h318v-1905h-318v133z" />
<glyph unicode="^" horiz-adv-x="843" d="M82 891l309 565h62l284 -565h-153l-127 276l-37 142l-49 -144l-148 -274h-141z" />
<glyph unicode="_" horiz-adv-x="684" d="M0 -287h684v-133h-684v133z" />
<glyph unicode="`" horiz-adv-x="522" d="M123 1432v43h170l106 -306h-84z" />
<glyph unicode="a" horiz-adv-x="819" d="M59 274q0 168 107 240t303 72q53 0 84 -2q6 64 6 112q0 118 -35 164.5t-127 46.5q-57 0 -125 -17.5t-112 -43.5l-49 117q126 77 323 77q67 0 116 -17.5t77.5 -45t46 -70t23 -84.5t5.5 -96q0 -85 -5 -240t-5 -221q0 -159 25 -270h-113l-35 121h-8q-75 -131 -250 -131 q-112 0 -182 77.5t-70 210.5zM213 291q0 -80 39.5 -126t103.5 -46q80 0 129 37t70 94v217q-54 4 -82 4q-53 0 -97 -8.5t-82 -28t-59.5 -56t-21.5 -87.5z" />
<glyph unicode="b" horiz-adv-x="888" d="M121 53v1381h147v-488h6q83 103 224 103q160 0 237.5 -126.5t77.5 -394.5q0 -273 -104 -409.5t-299 -136.5q-91 0 -170 20.5t-119 50.5zM268 150q59 -35 160 -35q109 0 170 103.5t61 309.5q0 387 -198 387q-142 0 -193 -163v-602z" />
<glyph unicode="c" horiz-adv-x="729" d="M76 512q0 262 93 399.5t267 137.5q144 0 236 -52l-41 -129q-83 47 -178 47q-112 0 -168 -98t-56 -305q0 -87 13 -157.5t40 -127t74.5 -87.5t112.5 -31q102 0 174 61l43 -119q-101 -76 -254 -76q-356 0 -356 537z" />
<glyph unicode="d" horiz-adv-x="886" d="M76 510q0 259 98.5 395.5t274.5 136.5q59 0 93 -6t76 -24v422h148v-1082q0 -247 16 -356h-100l-33 123h-8q-31 -64 -93 -104t-145 -40q-167 0 -247 130t-80 405zM229 508q0 -399 201 -399q148 0 188 174v579q-30 25 -65 36t-94 11q-111 0 -170.5 -100.5t-59.5 -300.5z " />
<glyph unicode="e" horiz-adv-x="845" d="M76 512q0 261 95 399t273 138q51 0 92.5 -8.5t84.5 -34.5t72.5 -68t48 -115t18.5 -170q0 -62 -10 -157h-521q0 -387 258 -387q55 0 109 19.5t84 49.5l53 -108q-50 -45 -125 -70t-159 -25q-188 0 -280.5 142t-92.5 395zM231 618h387v24q0 131 -42 199q-46 74 -130 74 q-195 0 -215 -297z" />
<glyph unicode="f" horiz-adv-x="526" d="M33 891v133h125v57q0 194 55.5 279.5t187.5 85.5q113 0 185 -33l-37 -127q-58 27 -129 27q-32 0 -53 -11.5t-33.5 -30.5t-18.5 -58t-8 -79.5t-2 -109.5h213v-133h-213v-891h-147v891h-125z" />
<glyph unicode="g" horiz-adv-x="884" d="M76 508q0 264 101.5 399t299.5 135q156 0 289 -61v-1028q0 -387 -344 -387q-174 0 -275 57l43 127q36 -16 59.5 -25t65 -17.5t86.5 -8.5q123 0 170 68t47 235v76h-6q-69 -101 -215 -101q-166 0 -243.5 128t-77.5 403zM229 510q0 -120 19 -206t65 -139.5t117 -53.5 q77 0 122 40t66 123v603q-57 32 -157 32q-109 0 -170.5 -98.5t-61.5 -300.5z" />
<glyph unicode="h" horiz-adv-x="901" d="M121 0v1434h147v-506h6q92 121 252 121q93 0 150 -34.5t87 -120t30 -232.5v-662h-148v623q0 151 -36.5 221.5t-131.5 70.5q-72 0 -130.5 -51t-78.5 -129v-735h-147z" />
<glyph unicode="i" horiz-adv-x="444" d="M119 1335q0 49 28 80t72 31q45 0 75 -30.5t30 -80.5q0 -48 -29.5 -76t-75.5 -28q-45 0 -72.5 28.5t-27.5 75.5zM145 0v1024h148v-1024h-148z" />
<glyph unicode="j" horiz-adv-x="440" d="M8 -297q37 0 62 12.5t40 34t23.5 61.5t11 83t2.5 110v1020h148v-1079q0 -214 -69 -306q-54 -74 -161 -74q-27 0 -57 5v133zM119 1335q0 49 28 80t72 31q45 0 75 -30.5t30 -80.5q0 -48 -29.5 -76t-75.5 -28q-45 0 -72.5 28.5t-27.5 75.5z" />
<glyph unicode="k" horiz-adv-x="794" d="M121 0v1434h147v-873l68 29l239 434h170l-241 -414l-72 -65l84 -80l264 -465h-178l-258 461h-76v-461h-147z" />
<glyph unicode="l" horiz-adv-x="477" d="M131 195v1239h148v-1190q0 -133 73 -133q40 0 101 22l14 -119q-25 -16 -73 -26.5t-89 -10.5q-174 0 -174 218z" />
<glyph unicode="m" horiz-adv-x="1333" d="M121 0v1024h104l27 -109h6q95 134 254 134q80 0 129 -35t78 -119q37 72 105.5 113t150.5 41q93 0 146 -33t79.5 -116t26.5 -230v-670h-148v651q0 144 -28 204t-115 60q-147 0 -188 -178v-737h-148v608q0 173 -28.5 240t-118.5 67q-65 0 -115 -52t-70 -126v-737h-147z" />
<glyph unicode="n" horiz-adv-x="899" d="M121 0v1024h106l27 -109h6q41 60 109 97t155 37q68 0 116 -18.5t83.5 -62t52.5 -118.5t17 -186v-664h-148v625q0 156 -36.5 223t-127.5 67q-78 0 -132.5 -46.5t-80.5 -123.5v-745h-147z" />
<glyph unicode="o" horiz-adv-x="884" d="M76 512q0 537 366 537q188 0 277.5 -132.5t89.5 -404.5t-94.5 -404.5t-272.5 -132.5q-188 0 -277 132.5t-89 404.5zM229 512q0 -403 213 -403q108 0 160.5 96.5t52.5 306.5q0 403 -213 403q-106 0 -159.5 -98t-53.5 -305z" />
<glyph unicode="p" horiz-adv-x="890" d="M121 -410v1434h104l23 -111h8q77 136 238 136q164 0 243.5 -123t79.5 -394q0 -258 -102.5 -407.5t-276.5 -149.5q-62 0 -96 7t-74 30v-422h-147zM268 162q32 -27 68 -40t92 -13q110 0 173 112t63 314q0 179 -49 279.5t-154 100.5q-149 0 -193 -182v-571z" />
<glyph unicode="q" horiz-adv-x="884" d="M76 508q0 263 104 398.5t303 135.5q81 0 159.5 -19t123.5 -44v-1389h-148v494h-8q-69 -109 -213 -109q-162 0 -241.5 131t-79.5 402zM229 510q0 -401 199 -401q76 0 121 43.5t69 132.5v589q-59 35 -161 35q-108 0 -168 -100.5t-60 -298.5z" />
<glyph unicode="r" horiz-adv-x="561" d="M121 0v1024h104l27 -109h6q62 127 186 127q48 0 107 -18l-29 -150q-55 19 -94 19q-65 0 -106.5 -37.5t-53.5 -101.5v-754h-147z" />
<glyph unicode="s" horiz-adv-x="692" d="M59 39l45 129q98 -59 213 -59q72 0 117 36t45 107q0 51 -21.5 91.5t-56.5 68t-76.5 52.5t-83.5 53t-77 62t-56.5 86t-21.5 119q0 130 70 197.5t200 67.5q154 0 252 -58l-39 -123q-89 47 -194 47q-74 0 -108 -30.5t-34 -96.5q0 -42 21.5 -76t56.5 -59.5t77 -50.5t84 -56 t77 -68t56.5 -94t21.5 -128q0 -122 -77.5 -201.5t-223.5 -79.5q-170 0 -267 64z" />
<glyph unicode="t" horiz-adv-x="563" d="M18 891v133h125v203l148 47v-250h221v-133h-221v-610q0 -91 21.5 -130.5t70.5 -39.5q26 0 51.5 5t38 9.5t45.5 17.5l29 -116q-95 -50 -213 -50q-102 0 -146.5 66.5t-44.5 216.5v631h-125z" />
<glyph unicode="u" horiz-adv-x="888" d="M106 360v664h148v-627q0 -158 32 -223t115 -65q78 0 133.5 58.5t83.5 145.5v711h148v-733q0 -177 20 -291h-104l-37 143h-6q-39 -74 -105.5 -121t-158.5 -47q-54 0 -94 10t-74.5 36t-55.5 69t-33 110.5t-12 159.5z" />
<glyph unicode="v" horiz-adv-x="794" d="M8 1024h168l193 -600l41 -203h4l37 207l180 596h155l-350 -1047h-71z" />
<glyph unicode="w" horiz-adv-x="1208" d="M10 1024h158l158 -596l24 -199h4l37 203l168 592h109l182 -598l37 -197h4l31 201l139 594h139l-272 -1047h-84l-207 672l-29 172h-4l-29 -174l-200 -670h-84z" />
<glyph unicode="x" horiz-adv-x="843" d="M39 0l291 524l-271 500h177l151 -293l41 -115l43 115l156 293h161l-272 -492l289 -532h-168l-172 322l-45 122l-47 -122l-172 -322h-162z" />
<glyph unicode="y" horiz-adv-x="770" d="M14 1024h168l193 -662l43 -198h10l31 198l155 662h150l-244 -920q-20 -77 -33 -124t-32.5 -109t-35.5 -99t-38.5 -78t-44.5 -63t-50.5 -36.5t-60.5 -14.5q-54 0 -100 19l25 139q19 -7 36 -7q43 0 79 41q51 59 81 228z" />
<glyph unicode="z" horiz-adv-x="737" d="M66 0v133l380 670l72 88h-452v133h598v-133l-383 -676l-70 -82h453v-133h-598z" />
<glyph unicode="{" horiz-adv-x="577" d="M88 416v133q131 0 131 172v506q0 209 162 209h151v-133h-79q-48 0 -67 -25.5t-19 -91.5v-500q0 -86 -32 -134.5t-83 -59.5v-13q49 -8 82 -63.5t33 -139.5v-497q0 -64 19.5 -90.5t68.5 -26.5h77v-133h-151q-162 0 -162 207v497q0 100 -32.5 141.5t-98.5 41.5z" />
<glyph unicode="|" horiz-adv-x="389" d="M133 -266v1700h125v-1700h-125z" />
<glyph unicode="}" horiz-adv-x="577" d="M45 -338h78q49 0 68.5 26.5t19.5 90.5v497q0 84 33 139.5t82 63.5v13q-51 11 -83 59.5t-32 134.5v500q0 66 -19 91.5t-67 25.5h-80v133h152q161 0 161 -209v-506q0 -172 131 -172v-133q-66 0 -98.5 -41.5t-32.5 -141.5v-497q0 -207 -161 -207h-152v133z" />
<glyph unicode="~" horiz-adv-x="849" d="M47 739q132 121 244 121q54 0 111 -27t108.5 -54t91.5 -27q67 0 129 67l70 -123q-117 -98 -211 -98q-40 0 -83 17.5t-74 39t-71 39t-75 17.5q-79 0 -172 -93z" />
<glyph unicode="&#xa2;" d="M156 512q0 233 77.5 368.5t225.5 161.5v187h133v-182q104 -8 176 -50l-41 -129q-58 35 -147 45v-804q98 9 159 63l43 -117q-72 -60 -190 -73v-187h-133v185q-303 45 -303 532zM303 512q7 -82 16.5 -139.5t29 -113t52.5 -90.5t80 -50v788q-87 -23 -129.5 -118.5 t-48.5 -276.5z" />
<glyph unicode="&#xa3;" d="M86 0v137q65 3 112 45.5t68 103.5t21 132q0 110 -41 231h-160v133h111q-50 148 -50 287q0 193 92.5 291t256.5 98q182 0 299 -57l-50 -131q-96 51 -245 51q-95 0 -147 -66t-52 -192q0 -78 15 -140t44 -141h261v-133h-213q32 -112 32 -219q0 -63 -17.5 -132t-47.5 -110 l-80 -71v-8l121 28h411v-137h-741z" />
<glyph unicode="&#xa5;" d="M6 1434h180l258 -625l27 -125h4l27 129l250 621h166l-336 -766h163v-119h-204v-146h204v-118h-204v-285h-154v285h-205v118h205v146h-205v119h162z" />
<glyph unicode="&#xa8;" horiz-adv-x="747" d="M123 1337q0 47 23.5 74t64.5 27t64.5 -27t23.5 -74q0 -43 -23.5 -69.5t-64.5 -26.5t-64.5 26.5t-23.5 69.5zM449 1337q0 47 23.5 74t64.5 27t64.5 -27t23.5 -74q0 -43 -23.5 -69.5t-64.5 -26.5t-64.5 26.5t-23.5 69.5z" />
<glyph unicode="&#xa9;" horiz-adv-x="1419" d="M102 600q0 185 83 325t220.5 211.5t305.5 71.5t305 -71.5t220 -211.5t83 -325q0 -186 -83 -326t-219.5 -211t-305.5 -71q-279 0 -444 161.5t-165 446.5zM225 600q0 -230 138 -362t348 -132t347.5 132t137.5 362t-137.5 362t-347.5 132t-348 -132t-138 -362zM422 600 q0 156 78 242t209 86q58 0 96 -10.5t96 -36.5l-45 -113q-71 35 -131 35q-156 0 -156 -203t170 -203q82 0 138 33l36 -113q-83 -47 -204 -47q-138 0 -212.5 88t-74.5 242z" />
<glyph unicode="&#xab;" horiz-adv-x="790" d="M59 530l265 471l102 -69l-168 -316l-78 -84l78 -73l180 -309l-104 -72zM365 530l260 467l98 -67l-164 -314l-78 -84l78 -73l174 -307l-98 -70z" />
<glyph unicode="&#xad;" horiz-adv-x="595" d="M96 514v141h404v-141h-404z" />
<glyph unicode="&#xae;" horiz-adv-x="1210" d="M147 1004q0 143 63.5 248t166 156.5t227.5 51.5q130 0 232.5 -51.5t164.5 -156.5t62 -248q0 -108 -36.5 -196.5t-99.5 -145t-146 -87t-177 -30.5q-198 0 -327.5 122t-129.5 337zM258 1004q0 -172 98.5 -264.5t247.5 -92.5q158 0 253 90.5t95 266.5q0 171 -98.5 262.5 t-249.5 91.5q-158 0 -252 -90.5t-94 -263.5zM426 778v449q70 18 174 18q78 0 127 -33t49 -102q0 -54 -33.5 -84t-89.5 -35l49 -22l127 -191h-106l-123 180l-84 27v-207h-90zM516 1036h59q105 0 105 70q0 61 -100 61q-50 0 -64 -8v-123z" />
<glyph unicode="&#xb4;" horiz-adv-x="501" d="M123 1169l96 306h160v-43l-168 -263h-88z" />
<glyph unicode="&#xb8;" horiz-adv-x="536" d="M123 -418l14 80q44 -4 74 2t43 19t17.5 26.5t4.5 30.5q0 58 -141 76l82 184h102l-38 -88q133 -30 133 -154q0 -81 -59 -132.5t-156 -51.5q-45 0 -76 8z" />
<glyph unicode="&#xbb;" horiz-adv-x="790" d="M57 930l99 67l270 -448l-260 -467l-100 65l165 316l78 84l-78 74zM352 932l105 69l274 -452l-264 -471l-105 67l170 318l78 84l-78 74z" />
<glyph unicode="&#x2c6;" horiz-adv-x="702" d="M123 1126l203 373h71l183 -373h-129l-66 136l-33 118l-35 -118l-73 -136h-121z" />
<glyph unicode="&#x2da;" horiz-adv-x="583" d="M123 1317q0 86 45 134t123 48t124 -44.5t46 -137.5q0 -82 -46 -131t-124 -49q-79 0 -123.5 46.5t-44.5 133.5zM221 1317q0 -45 19.5 -69.5t50.5 -24.5q71 0 71 94q0 47 -20 71.5t-51 24.5t-50.5 -24t-19.5 -72z" />
<glyph unicode="&#x2dc;" horiz-adv-x="741" d="M123 1337q97 121 176 121q40 0 101.5 -38t91.5 -38q39 0 79 43l47 -77q-87 -105 -157 -105q-39 0 -101 37t-94 37q-48 0 -94 -51z" />
<glyph unicode="&#x401;" horiz-adv-x="878" d="M131 0v1434h637v-142h-483v-485h444v-141h-444v-525h493v-141h-647zM184 1626q0 43 26.5 69.5t70.5 26.5q43 0 68.5 -26.5t25.5 -69.5t-25.5 -68.5t-68.5 -25.5q-44 0 -70.5 25.5t-26.5 68.5zM508 1626q0 43 25.5 69.5t68.5 26.5q44 0 70 -26.5t26 -69.5t-26 -68.5 t-70 -25.5q-43 0 -68.5 25.5t-25.5 68.5z" />
<glyph unicode="&#x402;" horiz-adv-x="1204" d="M29 1292v142h862v-142h-354v-442q122 45 231 45q57 0 105.5 -12t94.5 -42t78.5 -77.5t52 -124.5t19.5 -176q0 -245 -94.5 -362t-290.5 -117q-101 0 -117 6v141q31 -6 117 -6q223 0 223 324q0 168 -62.5 236.5t-176.5 68.5q-76 0 -180 -45v-709h-154v1292h-354z" />
<glyph unicode="&#x403;" horiz-adv-x="731" d="M131 0v1434h627v-142h-473v-1292h-154zM322 1540l190 242h203v-43l-269 -199h-124z" />
<glyph unicode="&#x404;" horiz-adv-x="960" d="M88 717q0 159 27.5 286.5t74.5 211t112 139.5t136.5 80t151.5 24q166 0 280 -49l-39 -139q-77 47 -227 47q-68 0 -125.5 -27.5t-106.5 -85.5t-80.5 -158t-39.5 -235h496v-141h-498q10 -271 110.5 -412t268.5 -141q128 0 219 65l37 -127q-95 -80 -297 -80 q-112 0 -201.5 42t-157.5 129t-104.5 231.5t-36.5 339.5z" />
<glyph unicode="&#x405;" horiz-adv-x="876" d="M68 49l53 141q44 -30 115 -51.5t155 -21.5q120 0 189 58t69 175q0 65 -30.5 121.5t-79 99.5t-107 84t-117.5 86.5t-107.5 96.5t-79 123.5t-30.5 158.5q0 167 100.5 252.5t272.5 85.5q201 0 311 -65l-49 -136q-95 60 -264 60q-106 0 -161.5 -52.5t-55.5 -138.5 q0 -58 30.5 -110t79 -94t107 -84t117.5 -89.5t107.5 -101t79 -127.5t30.5 -160q0 -181 -107 -283t-301 -102q-207 0 -327 74z" />
<glyph unicode="&#x406;" horiz-adv-x="477" d="M162 0v1434h153v-1434h-153z" />
<glyph unicode="&#x407;" horiz-adv-x="483" d="M39 1624q0 44 24.5 71t65.5 27t64.5 -26.5t23.5 -71.5q0 -44 -23.5 -70t-64.5 -26t-65.5 26t-24.5 70zM164 0v1434h153v-1434h-153zM266 1624q0 45 23.5 71.5t64.5 26.5t65.5 -27t24.5 -71t-24.5 -70t-65.5 -26t-64.5 26t-23.5 70z" />
<glyph unicode="&#x408;" horiz-adv-x="493" d="M-53 12l33 133q41 -24 98 -24q69 0 90.5 55t21.5 174v1084h154v-1112q0 -173 -56.5 -257.5t-187.5 -84.5q-99 0 -153 32z" />
<glyph unicode="&#x409;" horiz-adv-x="1529" d="M-8 10l22 140q46 -13 79.5 7t62.5 93q103 252 116 1184h625v-557q79 18 166 18q414 0 414 -430q0 -242 -119.5 -361.5t-335.5 -119.5q-188 0 -279 28v1280h-323q-19 -452 -46 -713t-79 -401q-67 -188 -203 -188q-61 0 -100 20zM897 135q41 -10 141 -10q129 0 203 82.5 t74 243.5q0 165 -74.5 234t-204.5 69q-54 0 -139 -19v-600z" />
<glyph unicode="&#x40a;" horiz-adv-x="1599" d="M131 0v1434h154v-600h528v600h154v-600q16 5 72.5 10.5t93.5 5.5q69 0 125.5 -10t111.5 -37.5t92.5 -71.5t60.5 -117.5t23 -171.5q0 -236 -119.5 -347t-332.5 -111q-171 0 -281 28v680h-528v-692h-154zM967 137q37 -12 145 -12q128 0 200 75t72 230q0 83 -21 140 t-60.5 86t-85.5 41t-107 12q-70 0 -143 -19v-553z" />
<glyph unicode="&#x40b;" horiz-adv-x="1239" d="M29 1292v142h858v-142h-352v-479q50 36 124 62t160 26q74 0 130 -20t99 -65t65 -123.5t22 -190.5v-502h-154v477q0 152 -46.5 217.5t-150.5 65.5q-73 0 -140 -25t-109 -67v-668h-154v1292h-352z" />
<glyph unicode="&#x40c;" horiz-adv-x="1009" d="M131 0v1434h154v-668l71 29l373 639h176l-375 -619l-71 -65l84 -82l415 -668h-194l-406 664h-73v-664h-154zM375 1540l190 242h203v-43l-268 -199h-125z" />
<glyph unicode="&#x40e;" horiz-adv-x="917" d="M6 1434h180l281 -736l39 -182h10l33 189l213 729h158l-293 -932q-100 -317 -155.5 -414.5t-166.5 -97.5q-96 0 -153 43l45 131q46 -33 108 -33q81 0 129 240zM201 1747l147 35q5 -76 43 -121t103 -45q64 0 100.5 44t42.5 120l131 -31q-36 -244 -276 -244 q-127 0 -203 59.5t-88 182.5z" />
<glyph unicode="&#x40f;" horiz-adv-x="1077" d="M131 0v1434h154v-1293h508v1293h153v-1434h-332l-26 -367h-96l-33 367h-328z" />
<glyph unicode="&#x410;" horiz-adv-x="968" d="M10 0l432 1456h84l432 -1456h-159l-117 401h-406l-114 -401h-152zM317 539h328l-125 442l-39 215h-4l-39 -219z" />
<glyph unicode="&#x411;" horiz-adv-x="911" d="M131 12v1422h641v-142h-487v-440q88 18 151 18q72 0 131.5 -11.5t113.5 -41t91 -76t58.5 -119.5t21.5 -169q0 -237 -114.5 -353t-311.5 -116q-193 0 -295 28zM285 137q37 -12 155 -12q115 0 182.5 74.5t67.5 224.5q0 77 -14 133t-37.5 88.5t-60 52t-74 25.5t-88.5 6 q-62 0 -131 -18v-574z" />
<glyph unicode="&#x412;" horiz-adv-x="964" d="M131 10v1411q149 29 324 29q62 0 113 -7.5t103.5 -30.5t88.5 -59.5t59 -99t23 -145.5q0 -73 -21 -140.5t-71.5 -125t-122.5 -80.5v-8q110 -23 180 -106.5t70 -239.5q0 -108 -34.5 -191t-95.5 -133t-138.5 -75t-168.5 -25q-220 0 -309 26zM285 139q43 -14 168 -14 q114 0 188 71.5t74 200.5q0 80 -24.5 135t-68.5 82.5t-92 38.5t-108 11h-137v-525zM285 797h84q83 0 127 8q80 33 132 103t52 165q0 236 -234 236q-104 0 -161 -11v-501z" />
<glyph unicode="&#x413;" horiz-adv-x="731" d="M131 0v1434h627v-142h-473v-1292h-154z" />
<glyph unicode="&#x414;" horiz-adv-x="1110" d="M6 141h119q13 23 30.5 74t42.5 161.5t44.5 248.5t33 352.5t11.5 456.5h631v-1293h149v-405h-109l-24 264h-795l-24 -264h-109v405zM287 141h477v1151h-330q-19 -808 -147 -1151z" />
<glyph unicode="&#x415;" horiz-adv-x="878" d="M131 0v1434h637v-142h-483v-485h444v-141h-444v-525h493v-141h-647z" />
<glyph unicode="&#x416;" horiz-adv-x="1339" d="M-4 0l352 643l80 76l-76 72l-332 643h181l315 -643h72v643h147v-668l70 29l315 639h172l-321 -623l-68 -66l84 -81l356 -664h-190l-344 666h-74v-666h-147v690l-68 -28l-344 -662h-180z" />
<glyph unicode="&#x417;" horiz-adv-x="888" d="M63 29l41 139q90 -51 267 -51q116 0 193 78.5t77 220.5q0 128 -67.5 190.5t-192.5 73.5q-27 2 -74 2h-84v133h37q104 0 148 10q86 21 142 87t56 161q0 128 -62 186t-169 58q-158 0 -242 -51l-41 125q41 26 128.5 46.5t185.5 20.5q59 0 109.5 -10t98 -35t81 -64.5 t53.5 -101t20 -141.5q0 -110 -54 -199.5t-159 -132.5v-8q118 -24 183 -111.5t65 -232.5q0 -114 -35.5 -202t-97.5 -140.5t-139 -78.5t-166 -26q-199 0 -302 54z" />
<glyph unicode="&#x418;" horiz-adv-x="1114" d="M131 0v1434h154v-953l-15 -184h9l71 192l533 945h100v-1434h-154v938l13 188h-6l-72 -192l-531 -934h-102z" />
<glyph unicode="&#x419;" horiz-adv-x="1114" d="M131 0v1434h154v-953l-15 -184h9l71 192l533 945h100v-1434h-154v938l13 188h-6l-72 -192l-531 -934h-102zM281 1747l147 35q5 -77 42.5 -121.5t102.5 -44.5q64 0 101 44t43 120l131 -31q-36 -244 -277 -244q-126 0 -202 59.5t-88 182.5z" />
<glyph unicode="&#x41a;" horiz-adv-x="1009" d="M131 0v1434h154v-668l71 29l373 639h176l-375 -619l-71 -65l84 -82l415 -668h-194l-406 664h-73v-664h-154z" />
<glyph unicode="&#x41b;" horiz-adv-x="1028" d="M-8 10l22 142q46 -13 79.5 6t62.5 92q103 252 116 1184h625v-1434h-154v1292h-323q-19 -452 -46 -713t-79 -401q-67 -188 -203 -188q-61 0 -100 20z" />
<glyph unicode="&#x41c;" horiz-adv-x="1304" d="M131 0v1434h129l346 -705l51 -168h5l49 170l327 703h136v-1434h-154v942l18 217h-8l-65 -203l-289 -622h-51l-303 622l-64 203h-8l29 -217v-942h-148z" />
<glyph unicode="&#x41d;" horiz-adv-x="1097" d="M131 0v1434h154v-631h528v631h154v-1434h-154v662h-528v-662h-154z" />
<glyph unicode="&#x41e;" horiz-adv-x="1124" d="M88 717q0 741 473 741q475 0 475 -741q0 -366 -118.5 -554t-356.5 -188q-473 0 -473 742zM250 717q0 -98 10.5 -185t34.5 -164t60 -132t88.5 -87t117.5 -32q313 0 313 600q0 123 -17.5 228t-53.5 190t-98 133.5t-144 48.5q-311 0 -311 -600z" />
<glyph unicode="&#x41f;" horiz-adv-x="1077" d="M131 0v1434h815v-1434h-153v1292h-508v-1292h-154z" />
<glyph unicode="&#x420;" horiz-adv-x="923" d="M131 0v1419q109 31 285 31q70 0 130.5 -11t121 -41.5t103 -78.5t69 -127t26.5 -182q0 -124 -37 -218t-101.5 -148t-142 -80.5t-167.5 -26.5q-100 0 -133 8v-545h-154zM285 686q16 -8 123 -8q61 0 111 15.5t93.5 51t68 103t24.5 162.5q0 83 -22.5 143t-63 93t-89 48 t-106.5 15q-89 0 -139 -13v-610z" />
<glyph unicode="&#x421;" horiz-adv-x="937" d="M88 717q0 159 27.5 286.5t74.5 211t112 139.5t136.5 80t151.5 24q160 0 274 -49l-37 -139q-83 47 -223 47q-74 0 -135.5 -32.5t-111.5 -101t-78.5 -187.5t-28.5 -279q0 -293 100.5 -446.5t274.5 -153.5q124 0 219 65l37 -127q-95 -80 -293 -80q-112 0 -201.5 42 t-157.5 129t-104.5 231.5t-36.5 339.5z" />
<glyph unicode="&#x422;" horiz-adv-x="915" d="M29 1292v142h858v-142h-352v-1292h-154v1292h-352z" />
<glyph unicode="&#x423;" horiz-adv-x="917" d="M6 1434h180l281 -736l39 -182h10l33 189l213 729h158l-293 -932q-100 -317 -155.5 -414.5t-166.5 -97.5q-96 0 -153 43l45 131q46 -33 108 -33q81 0 129 240z" />
<glyph unicode="&#x424;" horiz-adv-x="1296" d="M63 717q0 285 106.5 437.5t293.5 152.5q71 0 108 -9v177h154v-183q42 15 141 15q169 0 268 -143t99 -427q0 -288 -110 -437.5t-285 -149.5q-75 0 -113 14v-205h-154v201q-49 -10 -141 -10q-169 0 -268 137t-99 430zM221 717q0 -204 63 -319t179 -115q85 0 112 12v870 q-40 9 -100 9q-117 0 -185.5 -116t-68.5 -341zM721 289q23 -6 96 -6q120 0 189 114.5t69 339.5q0 200 -61 318.5t-174 118.5q-86 0 -119 -15v-870z" />
<glyph unicode="&#x425;" horiz-adv-x="1024" d="M39 0l377 729l-344 705h184l223 -486l41 -121l41 121l236 486h170l-357 -691l373 -743h-180l-248 514l-47 127l-43 -127l-254 -514h-172z" />
<glyph unicode="&#x426;" horiz-adv-x="1128" d="M131 0v1434h154v-1293h495v1293h154v-1293h151v-405h-106l-27 264h-821z" />
<glyph unicode="&#x427;" horiz-adv-x="997" d="M113 899v535h153v-500q0 -144 49.5 -205t151.5 -61q71 0 137.5 26.5t108.5 69.5v670h153v-1434h-153v614q-48 -36 -122 -62t-157 -26q-70 0 -124.5 17t-100.5 57t-71 115.5t-25 183.5z" />
<glyph unicode="&#x428;" horiz-adv-x="1431" d="M131 0v1434h154v-1293h354v1293h154v-1293h354v1293h153v-1434h-1169z" />
<glyph unicode="&#x429;" horiz-adv-x="1497" d="M131 0v1434h154v-1293h354v1293h154v-1293h354v1293h153v-1293h154v-405h-108l-25 264h-1190z" />
<glyph unicode="&#x42a;" horiz-adv-x="1050" d="M-2 1292v142h418v-557q99 18 168 18q68 0 125.5 -12t111.5 -42t92 -78t61 -124.5t23 -175.5q0 -243 -120.5 -361t-333.5 -118q-190 0 -281 28v1280h-264zM416 137q46 -12 143 -12q129 0 203 81t74 245q0 87 -22 148.5t-62 94t-87.5 46.5t-107.5 14q-68 0 -141 -19v-598z " />
<glyph unicode="&#x42b;" horiz-adv-x="1273" d="M131 12v1422h154v-557q75 18 145 18q68 0 124 -11t109 -41t89 -77t57.5 -123.5t21.5 -177.5q0 -245 -113 -363t-325 -118q-163 0 -262 28zM285 139q38 -14 123 -14q126 0 194 81.5t68 244.5q0 168 -70.5 235.5t-198.5 67.5q-61 0 -116 -19v-596zM989 0v1434h154v-1434 h-154z" />
<glyph unicode="&#x42c;" horiz-adv-x="919" d="M131 12v1422h154v-557q74 18 168 18q413 0 413 -430q0 -242 -119 -361.5t-335 -119.5q-190 0 -281 28zM285 137q49 -12 143 -12q129 0 203 82.5t74 243.5q0 165 -74.5 234t-204.5 69q-68 0 -141 -19v-598z" />
<glyph unicode="&#x42d;" horiz-adv-x="952" d="M61 1380q121 78 301 78q115 0 205 -40.5t157.5 -126.5t103.5 -230.5t36 -341.5q0 -159 -26.5 -285.5t-73.5 -211.5t-114.5 -141t-145.5 -81t-170 -25q-162 0 -268 52l43 139q40 -21 104 -35t129 -14q73 0 135.5 30t114.5 92.5t83.5 170.5t35.5 252h-469v137h469 q-10 253 -107.5 385.5t-257.5 132.5q-136 0 -240 -64z" />
<glyph unicode="&#x42e;" horiz-adv-x="1472" d="M131 0v1434h154v-631h194q22 655 455 655q99 0 175.5 -34t128 -96t84.5 -155t47.5 -204.5t14.5 -251.5q0 -369 -109 -555.5t-343 -186.5q-229 0 -339.5 180t-115.5 507h-192v-662h-154zM635 717q0 -126 16 -230.5t49.5 -189.5t93 -132.5t140.5 -47.5q152 0 220.5 144.5 t68.5 455.5q0 600 -289 600q-153 0 -226 -146.5t-73 -453.5z" />
<glyph unicode="&#x42f;" horiz-adv-x="944" d="M39 0l252 518l98 86q-124 32 -196 136t-72 276q0 434 438 434q152 0 254 -31v-1419h-154v629l-163 -43l-279 -586h-178zM283 1016q0 -151 72 -224t194 -73h110v577q-40 13 -112 13q-56 0 -100.5 -14t-83 -46t-59.5 -91t-21 -142z" />
<glyph unicode="&#x430;" horiz-adv-x="819" d="M59 274q0 168 107 240t303 72q53 0 84 -2q6 64 6 112q0 118 -35 164.5t-127 46.5q-57 0 -125 -17.5t-112 -43.5l-49 117q126 77 323 77q67 0 116 -17.5t77.5 -45t46 -70t23 -84.5t5.5 -96q0 -85 -5 -240t-5 -221q0 -159 25 -270h-113l-35 121h-8q-75 -131 -250 -131 q-112 0 -182 77.5t-70 210.5zM213 291q0 -80 39.5 -126t103.5 -46q80 0 129 37t70 94v217q-54 4 -82 4q-53 0 -97 -8.5t-82 -28t-59.5 -56t-21.5 -87.5z" />
<glyph unicode="&#x431;" horiz-adv-x="884" d="M76 621q0 207 23 351t56.5 224t98 127.5t118.5 62.5t148 27q95 12 142.5 26.5t76.5 47.5l11 -146q-32 -32 -85 -46.5t-157 -22.5q-58 -5 -100 -18.5t-79 -42t-61 -75t-40 -117.5t-23 -169h4q53 95 117.5 132.5t165.5 37.5q155 0 236 -120.5t81 -364.5q0 -279 -95 -419.5 t-270 -140.5q-187 0 -277.5 152t-90.5 494zM229 510q0 -176 54 -288.5t159 -112.5q213 0 213 411q0 367 -192 367q-234 0 -234 -377z" />
<glyph unicode="&#x432;" horiz-adv-x="825" d="M121 2v1020q203 16 287 16q163 0 236 -61.5t73 -190.5q0 -78 -36.5 -143t-111.5 -98v-8q97 -23 139 -82.5t42 -165.5q0 -157 -93 -230t-282 -73q-102 0 -254 16zM268 127q55 -8 127 -8q105 0 153 43t48 139q0 170 -190 170h-138v-344zM268 588h152q58 0 103.5 49.5 t45.5 114.5q0 81 -38.5 117t-129.5 36q-28 0 -133 -6v-311z" />
<glyph unicode="&#x433;" horiz-adv-x="606" d="M121 0v1024h487v-133h-340v-891h-147z" />
<glyph unicode="&#x434;" horiz-adv-x="899" d="M6 133h96q16 29 34 86.5t40 160.5t37.5 272t17.5 372h514v-891h121v-393h-102l-25 260h-606l-27 -260h-100v393zM252 133h346v758h-231q-9 -213 -37.5 -425t-77.5 -333z" />
<glyph unicode="&#x435;" horiz-adv-x="845" d="M76 512q0 261 95 399t273 138q51 0 92.5 -8.5t84.5 -34.5t72.5 -68t48 -115t18.5 -170q0 -62 -10 -157h-521q0 -387 258 -387q55 0 109 19.5t84 49.5l53 -108q-50 -45 -125 -70t-159 -25q-188 0 -280.5 142t-92.5 395zM231 618h387q4 149 -41.5 223t-130.5 74 q-195 0 -215 -297z" />
<glyph unicode="&#x436;" horiz-adv-x="1099" d="M0 0l252 469l55 61l-84 78l-205 416h156l213 -442h84v442h147v-463l76 29l213 434h154l-215 -416l-66 -65l84 -82l236 -461h-170l-230 461h-82v-461h-147v481l-76 -28l-229 -453h-166z" />
<glyph unicode="&#x437;" horiz-adv-x="718" d="M53 39l39 127q76 -49 203 -49q99 0 150 47t51 135q0 160 -205 160h-92v127h112q58 0 106 49.5t48 114.5q0 79 -41.5 116t-128.5 37q-58 0 -111 -17t-86 -40l-43 117q115 73 277 73q136 0 208 -63t72 -187q0 -79 -39 -143.5t-106 -93.5v-8q92 -23 134 -85.5t42 -168.5 q0 -135 -89 -219t-261 -84q-142 0 -240 55z" />
<glyph unicode="&#x438;" horiz-adv-x="899" d="M121 0v1024h147v-608l-12 -150h8l68 168l350 590h96v-1024h-147v590l12 155h-8l-72 -172l-346 -573h-96z" />
<glyph unicode="&#x439;" horiz-adv-x="899" d="M121 0v1024h147v-608l-12 -150h8l68 168l350 590h96v-1024h-147v590l12 155h-8l-72 -172l-346 -573h-96zM197 1399l125 39q10 -90 48 -132t95 -42q56 0 94.5 44t48.5 128l113 -33q-17 -120 -88 -186t-172 -66q-102 0 -175 60.5t-89 187.5z" />
<glyph unicode="&#x43a;" horiz-adv-x="792" d="M121 0v1024h147v-463l70 29l250 434h157l-243 -412l-72 -67l88 -82l262 -463h-176l-260 461h-76v-461h-147z" />
<glyph unicode="&#x43b;" horiz-adv-x="833" d="M-12 10l22 129q63 -18 96 23q64 79 87 466q10 164 14 396h506v-1024h-148v891h-223q-3 -81 -5.5 -139t-6.5 -133t-9.5 -128.5t-13 -117t-18 -108t-24 -91t-30.5 -77t-38 -56t-47.5 -37.5t-57.5 -12q-69 0 -104 18z" />
<glyph unicode="&#x43c;" horiz-adv-x="1069" d="M121 0v1024h147l224 -444l45 -134h4l49 138l207 440h151v-1024h-147v608l14 195h-8l-62 -174l-190 -393h-53l-199 393l-55 174h-10l16 -193v-610h-133z" />
<glyph unicode="&#x43d;" horiz-adv-x="888" d="M121 0v1024h147v-434h355v434h147v-1024h-147v457h-355v-457h-147z" />
<glyph unicode="&#x43e;" horiz-adv-x="884" d="M76 512q0 537 366 537q188 0 277.5 -132.5t89.5 -404.5t-94.5 -404.5t-272.5 -132.5q-188 0 -277 132.5t-89 404.5zM229 512q0 -403 213 -403q108 0 160.5 96.5t52.5 306.5q0 403 -213 403q-106 0 -159.5 -98t-53.5 -305z" />
<glyph unicode="&#x43f;" horiz-adv-x="880" d="M121 0v1024h639v-1024h-148v891h-344v-891h-147z" />
<glyph unicode="&#x440;" horiz-adv-x="890" d="M121 -410v1434h104l23 -111h8q77 136 238 136q164 0 243.5 -123t79.5 -394q0 -258 -102.5 -407.5t-276.5 -149.5q-62 0 -96 7t-74 30v-422h-147zM268 162q32 -27 68 -40t92 -13q110 0 173 112t63 314q0 179 -49 279.5t-154 100.5q-149 0 -193 -182v-571z" />
<glyph unicode="&#x441;" horiz-adv-x="729" d="M76 512q0 262 93 399.5t267 137.5q144 0 236 -52l-41 -129q-83 47 -178 47q-112 0 -168 -98t-56 -305q0 -87 13 -157.5t40 -127t74.5 -87.5t112.5 -31q102 0 174 61l43 -119q-101 -76 -254 -76q-356 0 -356 537z" />
<glyph unicode="&#x442;" horiz-adv-x="655" d="M2 891v133h651v-133h-252v-891h-147v891h-252z" />
<glyph unicode="&#x443;" horiz-adv-x="770" d="M14 1024h168l193 -662l43 -198h10l31 198l155 662h150l-244 -920q-20 -77 -33 -124t-32.5 -109t-35.5 -99t-38.5 -78t-44.5 -63t-50.5 -36.5t-60.5 -14.5q-54 0 -100 19l25 139q64 -24 115 34.5t81 227.5z" />
<glyph unicode="&#x444;" horiz-adv-x="1126" d="M68 512q0 528 344 528q49 0 80 -8v402h143v-404q49 10 96 10q169 0 248.5 -116t79.5 -392q0 -274 -86.5 -415.5t-247.5 -141.5q-55 0 -90 15v-400h-143v402q-41 -17 -113 -17q-155 0 -233 130t-78 407zM215 512q0 -195 50 -302.5t151 -107.5q37 0 80 11v792q-31 8 -76 8 q-205 0 -205 -401zM631 109q27 -7 80 -7q200 0 200 430q0 195 -47.5 288t-161.5 93q-40 0 -71 -10v-794z" />
<glyph unicode="&#x445;" horiz-adv-x="843" d="M39 0l291 524l-271 500h177l151 -293l41 -115l43 115l156 293h161l-272 -492l289 -532h-168l-172 322l-45 122l-47 -122l-172 -322h-162z" />
<glyph unicode="&#x446;" horiz-adv-x="905" d="M121 0v1024h147v-891h338v891h148v-891h118v-393h-102l-25 260h-624z" />
<glyph unicode="&#x447;" horiz-adv-x="811" d="M74 678v346h147v-299q0 -114 27.5 -168.5t107.5 -54.5q124 0 187 59v463h147v-1024h-147v430q-81 -61 -217 -61q-126 0 -189 69.5t-63 239.5z" />
<glyph unicode="&#x448;" horiz-adv-x="1216" d="M121 0v1024h147v-891h267v891h147v-891h266v891h148v-1024h-975z" />
<glyph unicode="&#x449;" horiz-adv-x="1247" d="M121 0v1024h147v-891h267v891h147v-891h266v891h148v-891h118v-393h-102l-25 260h-966z" />
<glyph unicode="&#x44a;" horiz-adv-x="833" d="M0 891v133h328v-391q71 14 147 14q162 0 236.5 -83t74.5 -222q0 -186 -89 -270t-287 -84q-116 0 -230 12v891h-180zM328 133q58 -12 112 -12q99 0 146 50t47 153q0 196 -189 196q-61 0 -116 -14v-373z" />
<glyph unicode="&#x44b;" horiz-adv-x="1101" d="M121 0v1024h147v-391q77 14 148 14q295 0 295 -305q0 -187 -84 -270.5t-275 -83.5q-117 0 -231 12zM268 133q62 -12 113 -12q95 0 135.5 50.5t40.5 152.5q0 97 -39.5 146.5t-132.5 49.5q-62 0 -117 -14v-373zM834 0v1024h147v-1024h-147z" />
<glyph unicode="&#x44c;" horiz-adv-x="772" d="M121 0v1024h147v-391q77 14 148 14q162 0 236.5 -83t74.5 -222q0 -185 -90 -269.5t-283 -84.5q-119 0 -233 12zM268 133q62 -12 113 -12q192 0 192 203q0 196 -188 196q-62 0 -117 -14v-373z" />
<glyph unicode="&#x44d;" horiz-adv-x="761" d="M57 25l41 131q77 -47 195 -47q227 0 239 344h-339v127h339q-6 161 -65 248t-164 87q-116 0 -194 -59l-52 117q102 76 271 76q183 0 270.5 -132.5t87.5 -404.5q0 -265 -98.5 -401t-280.5 -136q-158 0 -250 50z" />
<glyph unicode="&#x44e;" horiz-adv-x="1189" d="M121 0v1024h147v-430h160q14 229 98 341t248 112q178 0 259 -136.5t81 -398.5q0 -271 -84.5 -403t-257.5 -132q-174 0 -254.5 120.5t-91.5 363.5h-158v-461h-147zM571 512q0 -401 203 -401q100 0 143.5 93t43.5 308q0 93 -9.5 163t-30.5 125t-58.5 84t-90.5 29 q-105 0 -153 -98t-48 -303z" />
<glyph unicode="&#x44f;" horiz-adv-x="792" d="M31 0l190 352l66 74q-89 18 -145 89t-56 185q0 349 371 349q95 0 227 -31v-1018h-147v424l-125 -25l-207 -399h-174zM240 709q0 -94 59.5 -147t157.5 -48l80 4v379q-35 18 -95 18q-202 0 -202 -206z" />
<glyph unicode="&#x451;" horiz-adv-x="845" d="M76 512q0 261 95 399t273 138q51 0 92.5 -8.5t84.5 -34.5t72.5 -68t48 -115t18.5 -170q0 -62 -10 -157h-521q0 -387 258 -387q55 0 109 19.5t84 49.5l53 -108q-50 -45 -125 -70t-159 -25q-188 0 -280.5 142t-92.5 395zM184 1298q0 47 23.5 74t64.5 27t64.5 -27t23.5 -74 q0 -43 -23.5 -69.5t-64.5 -26.5t-64.5 26.5t-23.5 69.5zM231 618h387q4 149 -41.5 223t-130.5 74q-195 0 -215 -297zM510 1298q0 47 23.5 74t64.5 27t64.5 -27t23.5 -74q0 -43 -23.5 -69.5t-64.5 -26.5t-64.5 26.5t-23.5 69.5z" />
<glyph unicode="&#x452;" horiz-adv-x="907" d="M-4 1108v121h133v205h147v-205h263v-121h-263v-287h7q90 121 252 121q140 0 203 -82.5t63 -290.5v-628q0 -209 -68 -297.5t-219 -65.5v133q87 0 113 63t26 226v512q0 165 -35 231t-135 66q-71 0 -127 -47t-80 -123v-639h-147v1108h-133z" />
<glyph unicode="&#x453;" horiz-adv-x="606" d="M121 0v1024h487v-133h-340v-891h-147zM289 1169l96 306h160v-43l-168 -263h-88z" />
<glyph unicode="&#x454;" horiz-adv-x="770" d="M76 512q0 256 106 395.5t289 139.5q148 0 234 -50l-39 -129q-80 45 -185 45q-111 0 -175.5 -82.5t-76.5 -246.5h373v-127h-373q5 -97 33 -172.5t88 -124.5t144 -49q110 0 182 57l43 -119q-46 -34 -116.5 -53t-141.5 -19q-192 0 -288.5 142t-96.5 393z" />
<glyph unicode="&#x455;" horiz-adv-x="692" d="M59 39l45 129q98 -59 213 -59q72 0 117 36t45 107q0 51 -21.5 91.5t-56.5 68t-76.5 52.5t-83.5 53t-77 62t-56.5 86t-21.5 119q0 130 70 197.5t200 67.5q154 0 252 -58l-39 -123q-89 47 -194 47q-74 0 -108 -30.5t-34 -96.5q0 -42 21.5 -76t56.5 -59.5t77 -50.5t84 -56 t77 -68t56.5 -94t21.5 -128q0 -122 -77.5 -201.5t-223.5 -79.5q-170 0 -267 64z" />
<glyph unicode="&#x456;" horiz-adv-x="444" d="M119 1335q0 49 28 80t72 31q45 0 75 -30.5t30 -80.5q0 -48 -29.5 -76t-75.5 -28q-45 0 -72.5 28.5t-27.5 75.5zM145 0v1024h148v-1024h-148z" />
<glyph unicode="&#x457;" horiz-adv-x="473" d="M45 1337q0 48 21.5 73.5t62.5 25.5t62.5 -25.5t21.5 -73.5q0 -44 -22 -70t-62 -26t-62 26t-22 70zM156 0v1024h147v-1024h-147zM260 1337q0 48 21.5 73.5t62.5 25.5t62.5 -25.5t21.5 -73.5q0 -44 -22 -70t-62 -26t-62 26t-22 70z" />
<glyph unicode="&#x458;" horiz-adv-x="440" d="M8 -297q37 0 62 12.5t40 34t23.5 61.5t11 83t2.5 110v1020h148v-1079q0 -214 -68.5 -306t-218.5 -69v133zM119 1335q0 49 28 80t72 31q45 0 75 -30.5t30 -80.5q0 -48 -29.5 -76t-75.5 -28q-45 0 -72.5 28.5t-27.5 75.5z" />
<glyph unicode="&#x459;" horiz-adv-x="1216" d="M-12 10l22 129q63 -18 96 23q64 79 87 466q10 164 14 396h506v-391q77 14 147 14q162 0 236.5 -83t74.5 -222q0 -185 -89.5 -269.5t-282.5 -84.5q-120 0 -234 12v891h-223q-3 -81 -5.5 -139t-6.5 -133t-9.5 -128.5t-13 -117t-18 -108t-24 -91t-30.5 -77t-38 -56 t-47.5 -37.5t-57.5 -12q-69 0 -104 18zM713 133q61 -12 112 -12q193 0 193 203q0 196 -189 196q-61 0 -116 -14v-373z" />
<glyph unicode="&#x45a;" horiz-adv-x="1271" d="M121 0v1024h147v-428h353v428h147v-399q66 12 147 12q163 0 237.5 -78.5t74.5 -216.5q0 -186 -89 -270t-284 -84q-119 0 -233 12v463h-353v-463h-147zM768 131q51 -10 113 -10q192 0 192 198q0 191 -188 191q-70 0 -117 -12v-367z" />
<glyph unicode="&#x45b;" horiz-adv-x="907" d="M-4 1108v121h133v205h147v-205h263v-121h-263v-287h7q90 121 252 121q93 0 150 -35.5t86.5 -121.5t29.5 -232v-553h-148v524q0 151 -36 218t-134 67q-72 0 -129.5 -48t-77.5 -126v-635h-147v1108h-133z" />
<glyph unicode="&#x45c;" horiz-adv-x="792" d="M121 0v1024h147v-463l70 29l250 434h157l-243 -412l-72 -67l88 -82l262 -463h-176l-260 461h-76v-461h-147zM324 1169l96 306h160v-43l-168 -263h-88z" />
<glyph unicode="&#x45e;" horiz-adv-x="770" d="M14 1024h168l193 -662l43 -198h10l31 198l155 662h150l-244 -920q-20 -77 -33 -124t-32.5 -109t-35.5 -99t-38.5 -78t-44.5 -63t-50.5 -36.5t-60.5 -14.5q-54 0 -100 19l25 139q64 -24 115 34.5t81 227.5zM139 1399l125 39q10 -89 48.5 -131.5t95.5 -42.5q56 0 94.5 44 t48.5 128l113 -33q-17 -120 -88.5 -186t-172.5 -66q-102 0 -175 60.5t-89 187.5z" />
<glyph unicode="&#x45f;" horiz-adv-x="880" d="M121 0v1024h147v-883h344v883h148v-1024h-242l-26 -367h-97l-33 367h-241z" />
<glyph unicode="&#x462;" horiz-adv-x="1032" d="M0 1130v134h244v213h153v-213h340v-134h-340v-256q21 5 75 11t91 6q87 0 157.5 -20t131 -66.5t94 -133t33.5 -208.5q0 -240 -120 -359.5t-335 -119.5q-189 0 -280 28v1118h-244zM397 137q46 -12 144 -12q127 0 201.5 81t74.5 245q0 87 -21.5 148t-62 93t-87 45t-107.5 13 q-27 0 -74.5 -7t-67.5 -12v-594z" />
<glyph unicode="&#x463;" horiz-adv-x="833" d="M0 897v127h180v410h148v-410h264v-127h-264v-264q71 14 147 14q162 0 236.5 -83t74.5 -222q0 -186 -88.5 -270t-285.5 -84q-118 0 -232 12v897h-180zM328 131q49 -10 112 -10q97 0 145 54t48 149q0 87 -47.5 141.5t-141.5 54.5q-61 0 -116 -14v-375z" />
<glyph unicode="&#x472;" horiz-adv-x="1124" d="M88 717q0 741 473 741q475 0 475 -741q0 -366 -118.5 -554t-356.5 -188q-473 0 -473 742zM250 659q4 -114 23.5 -209.5t56 -171.5t95.5 -118.5t136 -42.5q298 0 313 542h-624zM250 797h624q-6 110 -27 201t-57.5 164t-95 114t-133.5 41q-142 0 -221.5 -130t-89.5 -390z " />
<glyph unicode="&#x473;" horiz-adv-x="884" d="M76 512q0 266 94 401.5t272 135.5q367 0 367 -537q0 -268 -94 -402.5t-273 -134.5q-366 0 -366 537zM229 451q6 -170 64 -256t149 -86q200 0 213 342h-426zM229 571h426q-19 344 -213 344q-90 0 -148 -80.5t-65 -263.5z" />
<glyph unicode="&#x474;" horiz-adv-x="997" d="M-6 1434h172l278 -981l39 -220h2l27 224l123 518q35 154 64 244.5t65.5 143t75.5 69t100 16.5q90 0 154 -41l-43 -133q-54 33 -105 33q-44 0 -75.5 -59t-65.5 -183l-289 -1088h-80z" />
<glyph unicode="&#x475;" horiz-adv-x="839" d="M10 1024h170l191 -592l41 -203h4l37 207l51 178q17 58 28 95.5t26 83t27 74t28 59.5t32 49t36 34t42.5 22.5t48.5 6.5q70 0 105 -18l-21 -137q-24 9 -35.5 12t-31 -0.5t-33.5 -20t-33 -52.5t-39 -93l-246 -752h-69z" />
<glyph unicode="&#x48a;" horiz-adv-x="1142" d="M131 0v1434h154v-953l-15 -184h9l71 192l533 945h100v-1301h170v-43l-152 -356h-102l74 266h-144v938l13 188h-6l-72 -192l-531 -934h-102zM276 1747l148 35q5 -77 42.5 -121.5t102.5 -44.5q64 0 101 44t43 120l131 -31q-36 -244 -277 -244q-127 0 -203 59.5t-88 182.5z " />
<glyph unicode="&#x48b;" horiz-adv-x="933" d="M121 0v1024h147v-608l-12 -150h8l68 168l350 590h96v-891h164v-43l-151 -350h-103l74 260h-131v590l12 155h-8l-72 -172l-346 -573h-96zM199 1399l125 39q10 -90 48 -132t95 -42q56 0 94.5 44t48.5 128l113 -33q-17 -120 -88 -186t-172 -66q-102 0 -175 60.5t-89 187.5z " />
<glyph unicode="&#x48c;" horiz-adv-x="1032" d="M0 1130v134h244v213h153v-213h340v-134h-340v-256q21 5 75 11t91 6q87 0 157.5 -20t131 -66.5t94 -133t33.5 -208.5q0 -240 -120 -359.5t-335 -119.5q-189 0 -280 28v1118h-244zM397 137q46 -12 144 -12q127 0 201.5 81t74.5 245q0 87 -21.5 148t-62 93t-87 45t-107.5 13 q-27 0 -74.5 -7t-67.5 -12v-594z" />
<glyph unicode="&#x48d;" horiz-adv-x="833" d="M0 897v127h180v410h148v-410h264v-127h-264v-264q71 14 147 14q162 0 236.5 -83t74.5 -222q0 -186 -88.5 -270t-285.5 -84q-118 0 -232 12v897h-180zM328 131q49 -10 112 -10q97 0 145 54t48 149q0 87 -47.5 141.5t-141.5 54.5q-61 0 -116 -14v-375z" />
<glyph unicode="&#x48e;" horiz-adv-x="923" d="M131 0v1419q109 31 285 31q70 0 130.5 -11t121 -41.5t103 -78.5t69 -127t26.5 -182q0 -274 -176 -396l121 -190l-96 -66l-131 203q-76 -24 -166 -24q-100 0 -133 8v-545h-154zM285 688q20 -10 123 -10q77 0 112 14l-121 197l74 57l129 -211q103 80 103 275 q0 83 -22.5 143t-63 93t-89 48t-106.5 15q-89 0 -139 -13v-608z" />
<glyph unicode="&#x48f;" horiz-adv-x="890" d="M121 -410v1434h104l23 -111h8q77 136 238 136q164 0 243.5 -123t79.5 -394q0 -303 -143 -456l94 -129l-90 -72l-96 131q-67 -31 -144 -31q-62 0 -96 7t-74 30v-422h-147zM268 162q32 -27 68 -40t92 -13q44 0 82 18l-100 143l69 58l101 -140q84 110 84 347 q0 179 -49 279.5t-154 100.5q-149 0 -193 -182v-571z" />
<glyph unicode="&#x490;" horiz-adv-x="731" d="M131 0v1434h496l28 274h103v-416h-473v-1292h-154z" />
<glyph unicode="&#x491;" horiz-adv-x="606" d="M121 0v1024h356l29 274h102v-407h-340v-891h-147z" />
<glyph unicode="&#x492;" horiz-adv-x="798" d="M14 655v129h162v650h627v-142h-473v-508h352v-129h-352v-655h-154v655h-162z" />
<glyph unicode="&#x493;" horiz-adv-x="626" d="M0 453v120h139v451h488v-133h-340v-318h282v-120h-282v-453h-148v453h-139z" />
<glyph unicode="&#x494;" horiz-adv-x="952" d="M131 0v1434h627v-142h-473v-565q116 43 227 43q354 0 354 -487q0 -281 -95.5 -413t-291.5 -132q-66 0 -114 6v141q31 -6 118 -6q114 0 168 97t54 292q0 102 -17 173.5t-49.5 112t-74.5 58t-97 17.5q-91 0 -182 -41v-588h-154z" />
<glyph unicode="&#x495;" horiz-adv-x="880" d="M121 0v1024h487v-133h-340v-375q2 1 16 6.5t24 9t30 9.5t38.5 9.5t45 6t53.5 2.5q55 0 100 -12.5t87.5 -45t71 -84t46 -134t17.5 -191.5q0 -270 -85.5 -395t-273.5 -125q-93 0 -114 8v133q36 -8 110 -8q109 0 159 91.5t50 277.5q0 99 -15 168.5t-44.5 109t-68 57 t-89.5 17.5q-68 0 -158 -39v-387h-147z" />
<glyph unicode="&#x496;" horiz-adv-x="1388" d="M-4 0l352 643l80 76l-76 72l-332 643h181l315 -643h72v643h147v-668l70 29l315 639h172l-321 -623l-68 -66l84 -81l281 -523h110v-405h-108l-25 264h-92l-344 666h-74v-666h-147v690l-68 -28l-344 -662h-180z" />
<glyph unicode="&#x497;" horiz-adv-x="1161" d="M0 0l252 469l55 61l-84 78l-205 416h156l213 -442h84v442h147v-463l74 29l215 434h154l-215 -416l-66 -65l84 -82l166 -328h125v-393h-100l-27 260h-98l-230 461h-82v-461h-147v481l-76 -28l-229 -453h-166z" />
<glyph unicode="&#x498;" horiz-adv-x="888" d="M63 29l41 139q90 -51 267 -51q116 0 193 78.5t77 220.5q0 128 -67.5 190.5t-192.5 73.5q-27 2 -74 2h-84v133h37q104 0 148 10q86 21 142 87t56 161q0 128 -62 186t-169 58q-155 0 -242 -53l-41 127q41 26 128.5 46.5t185.5 20.5q59 0 109.5 -10t98 -35t81 -64.5 t53.5 -101t20 -141.5q0 -110 -54 -199.5t-159 -132.5v-8q118 -24 183 -111.5t65 -232.5q0 -200 -101.5 -313.5t-263.5 -131.5l-24 -344h-97l-30 342q-138 8 -224 54z" />
<glyph unicode="&#x499;" horiz-adv-x="718" d="M53 39l39 127q73 -47 197 -47q200 0 200 180q0 160 -204 160h-88v127h108q58 0 106 49.5t48 114.5q0 79 -41.5 116t-128.5 37q-109 0 -191 -57l-43 117q115 73 277 73q136 0 208 -63t72 -187q0 -79 -39 -143.5t-106 -93.5v-8q92 -23 134 -85.5t42 -168.5 q0 -115 -63.5 -194t-188.5 -101l-24 -359h-97l-32 353q-103 8 -185 53z" />
<glyph unicode="&#x49a;" horiz-adv-x="1034" d="M131 0v1434h154v-668l71 29l373 639h176l-375 -619l-71 -65l84 -82l327 -527h148v-405h-109l-24 264h-121l-406 664h-73v-664h-154z" />
<glyph unicode="&#x49b;" horiz-adv-x="839" d="M121 0v1024h147v-463l70 29l250 434h157l-243 -412l-72 -67l88 -82l184 -330h121v-393h-100l-27 260h-92l-260 461h-76v-461h-147z" />
<glyph unicode="&#x49c;" horiz-adv-x="1142" d="M133 0v1434h154v-668l90 8v260h119v-246l36 7l334 639h174l-340 -617l-71 -67l84 -82l379 -668h-191l-364 664h-41v-265h-119v265h-90v-664h-154z" />
<glyph unicode="&#x49d;" horiz-adv-x="903" d="M121 0v1024h147v-463l80 6v256h107v-239l41 6l202 434h156l-199 -412l-73 -67l86 -82l217 -463h-170l-215 461h-45v-260h-107v260h-80v-461h-147z" />
<glyph unicode="&#x49e;" horiz-adv-x="1103" d="M0 1167v129h225v138h154v-138h194v-125h-194v-405l80 29l366 639h176l-368 -617l-76 -67l86 -82l410 -668h-193l-401 664h-80v-664h-154v1167h-225z" />
<glyph unicode="&#x49f;" horiz-adv-x="794" d="M-10 1137v120h133v177h147v-177h262v-120h-262v-576l68 29l240 434h170l-242 -414l-72 -65l84 -80l264 -465h-178l-258 461h-76v-461h-147v1137h-133z" />
<glyph unicode="&#x4a0;" horiz-adv-x="1142" d="M0 1292v142h418v-668l71 29l373 639h176l-374 -619l-72 -65l84 -82l416 -668h-195l-405 664h-74v-664h-154v1284v8h-264z" />
<glyph unicode="&#x4a1;" horiz-adv-x="851" d="M0 891v133h328v-463l71 29l248 434h158l-244 -412l-72 -67l89 -80l264 -465h-176l-260 461h-78v-461h-148v891h-180z" />
<glyph unicode="&#x4a2;" horiz-adv-x="1163" d="M131 0v1434h154v-631h528v631h154v-1293h151v-405h-106l-25 264h-174v662h-528v-662h-154z" />
<glyph unicode="&#x4a3;" horiz-adv-x="909" d="M121 0v1024h147v-434h355v434h147v-891h123v-393h-100l-27 260h-143v457h-355v-457h-147z" />
<glyph unicode="&#x4a4;" horiz-adv-x="1413" d="M131 0v1434h154v-631h528v631h627v-142h-473v-1292h-154v662h-528v-662h-154z" />
<glyph unicode="&#x4a5;" horiz-adv-x="1107" d="M121 0v1024h147v-434h355v434h487v-133h-340v-891h-147v457h-355v-457h-147z" />
<glyph unicode="&#x4a6;" horiz-adv-x="1611" d="M131 0v1434h815v-707q29 15 89 29t136 14q355 0 355 -487q0 -280 -94.5 -412.5t-290.5 -132.5q-99 0 -115 6v141q27 -6 119 -6q219 0 219 387q0 198 -61.5 280.5t-174.5 82.5q-50 0 -104.5 -14t-77.5 -27v-588h-153v1292h-508v-1292h-154z" />
<glyph unicode="&#x4a7;" horiz-adv-x="1368" d="M121 0v1024h639v-504q105 39 207 39q321 0 321 -465q0 -272 -85.5 -397t-274.5 -125q-92 0 -113 8v133q36 -8 115 -8q211 0 211 369q0 352 -219 352q-72 0 -162 -39v-387h-148v891h-344v-891h-147z" />
<glyph unicode="&#x4a8;" horiz-adv-x="1355" d="M88 717q0 368 126.5 554.5t367.5 186.5v-141q-157 0 -244.5 -148.5t-87.5 -449.5q0 -169 45.5 -306t130 -216.5t192.5 -79.5q57 0 80 8q-100 81 -158.5 249t-58.5 367q0 315 106 483.5t283 168.5q189 0 283 -149t94 -429q0 -242 -73.5 -429t-184.5 -269q7 -3 15 -3 t16.5 1.5t13.5 1.5q110 0 178 55l48 -125q-76 -72 -220 -72q-117 0 -204 62q-92 -62 -220 -62q-251 0 -389.5 197.5t-138.5 544.5zM643 725q0 -163 55 -320.5t156 -230.5q95 68 163 234.5t68 394.5q0 98 -11.5 177t-35.5 141t-65.5 96t-98.5 34q-102 0 -166.5 -133 t-64.5 -393z" />
<glyph unicode="&#x4a9;" horiz-adv-x="1105" d="M76 512q0 260 92 398t276 139v-134q-215 -3 -215 -401q0 -181 65 -293t189 -112q53 0 78 22q-58 46 -97.5 155.5t-39.5 243.5q0 80 9 150t31.5 134.5t56.5 110t87.5 72.5t122.5 27q77 0 134 -34t90 -95.5t49 -138.5t16 -170q0 -157 -57.5 -289t-131.5 -180q42 -23 94 -10 t89 55l47 -111q-29 -35 -80 -55.5t-111 -20.5q-115 0 -178 72q-83 -72 -227 -72q-188 0 -288.5 139.5t-100.5 397.5zM578 524q0 -118 35 -219.5t94 -152.5q68 44 113.5 162.5t45.5 269.5q0 131 -35.5 219t-101.5 88q-45 0 -76 -27.5t-46.5 -80.5t-22 -114t-6.5 -145z" />
<glyph unicode="&#x4aa;" horiz-adv-x="937" d="M88 717q0 159 27.5 286.5t74.5 211t112 139.5t136.5 80t151.5 24q160 0 274 -49l-37 -139q-83 47 -223 47q-74 0 -135.5 -32.5t-111.5 -101t-78.5 -187.5t-28.5 -279q0 -292 100 -443t275 -151q133 0 219 59l37 -127q-75 -64 -228 -78l-24 -344h-97l-30 349 q-194 31 -304 211.5t-110 523.5z" />
<glyph unicode="&#x4ab;" horiz-adv-x="729" d="M76 512q0 262 93 399.5t267 137.5q144 0 236 -52l-41 -127q-74 45 -178 45q-112 0 -168 -98t-56 -305q0 -86 13 -156.5t40 -126.5t74.5 -87t112.5 -31q104 0 174 59l43 -119q-63 -52 -170 -69l-24 -349h-97l-30 349q-289 46 -289 530z" />
<glyph unicode="&#x4ac;" horiz-adv-x="915" d="M29 1292v142h858v-142h-352v-1151h155v-405h-106l-25 264h-178v1292h-352z" />
<glyph unicode="&#x4ad;" horiz-adv-x="655" d="M2 891v133h651v-133h-252v-758h123v-393h-100l-27 260h-143v891h-252z" />
<glyph unicode="&#x4ae;" horiz-adv-x="931" d="M10 1434h180l259 -625l26 -125h4l27 129l250 621h166l-377 -863v-571h-154v569z" />
<glyph unicode="&#x4af;" horiz-adv-x="800" d="M10 1024h172l191 -655l43 -226h4l37 230l172 651h159l-307 -1024v-410h-147v410z" />
<glyph unicode="&#x4b0;" horiz-adv-x="931" d="M10 1434h180l259 -625l26 -125h4l27 129l250 621h166l-373 -850h246v-121h-250v-463h-154v463h-250v121h244z" />
<glyph unicode="&#x4b1;" horiz-adv-x="800" d="M10 1024h172l191 -655l43 -226h4l37 230l172 651h159l-307 -1024h195v-121h-195v-289h-147v289h-201v121h201z" />
<glyph unicode="&#x4b2;" horiz-adv-x="1085" d="M39 0l377 729l-344 705h184l223 -486l41 -121l41 121l236 486h170l-357 -691l301 -602h158v-405h-108l-25 264h-133l-248 514l-47 127l-43 -127l-254 -514h-172z" />
<glyph unicode="&#x4b3;" horiz-adv-x="872" d="M39 0l291 524l-271 500h177l151 -293l41 -115l43 115l156 293h161l-272 -492l215 -399h127v-393h-100l-27 260h-94l-172 322l-45 122l-47 -122l-172 -322h-162z" />
<glyph unicode="&#x4b4;" horiz-adv-x="1378" d="M29 1292v142h792v-142h-286v-1151h495v1293h154v-1293h151v-405h-106l-27 264h-821v1292h-352z" />
<glyph unicode="&#x4b5;" horiz-adv-x="1040" d="M2 891v133h625v-133h-226v-758h338v891h148v-891h121v-393h-103l-24 260h-627v891h-252z" />
<glyph unicode="&#x4b6;" horiz-adv-x="1060" d="M113 899v535h153v-500q0 -144 49.5 -205t151.5 -61q71 0 137.5 26.5t108.5 69.5v670h153v-1293h152v-405h-107l-24 264h-174v614q-48 -36 -122 -62t-157 -26q-70 0 -124.5 17t-100.5 57t-71 115.5t-25 183.5z" />
<glyph unicode="&#x4b7;" horiz-adv-x="847" d="M74 678v346h147v-299q0 -114 27.5 -168.5t107.5 -54.5q124 0 187 59v463h147v-891h125v-393h-100l-27 260h-145v430q-81 -61 -217 -61q-126 0 -189 69.5t-63 239.5z" />
<glyph unicode="&#x4b8;" horiz-adv-x="1019" d="M113 905v529h153v-496q0 -134 44.5 -199t138.5 -71v264h116v-254q106 22 170 86v670h154v-1434h-154v614q-69 -48 -170 -73v-244h-116v229h-9q-77 0 -134.5 19t-102 61.5t-67.5 117.5t-23 181z" />
<glyph unicode="&#x4b9;" horiz-adv-x="829" d="M74 713v311h147v-289q0 -115 24.5 -174.5t96.5 -66.5v270h107v-264q71 14 114 57v467h148v-1024h-148v430q-49 -39 -114 -55v-236h-107v221h-10q-133 0 -195.5 78t-62.5 275z" />
<glyph unicode="&#x4ba;" horiz-adv-x="997" d="M131 0v1434h154v-615q129 88 284 88q75 0 130 -19t98.5 -63t65.5 -123t22 -192v-510h-154v483q0 147 -47.5 215t-151.5 68q-73 0 -139 -25t-108 -67v-674h-154z" />
<glyph unicode="&#x4bb;" horiz-adv-x="901" d="M121 0v1434h147v-506h6q92 121 252 121q93 0 150 -34.5t87 -120t30 -232.5v-662h-148v623q0 151 -36.5 221.5t-131.5 70.5q-72 0 -130.5 -51t-78.5 -129v-735h-147z" />
<glyph unicode="&#x4bc;" horiz-adv-x="1294" d="M2 893q0 106 51 170h142q-54 -54 -54 -152q0 -65 35 -96t141 -24q11 322 127.5 494.5t331.5 172.5q208 0 313 -148.5t105 -428.5q0 -113 -14 -228h-701q12 -274 99 -405t262 -131q120 0 243 84l45 -129q-134 -97 -317 -97q-228 0 -356 166.5t-138 511.5h-57 q-138 0 -200.5 61t-57.5 179zM477 791h559q4 26 4 112q0 85 -15 157.5t-45 131t-82 92t-120 33.5q-288 0 -301 -526z" />
<glyph unicode="&#x4bd;" horiz-adv-x="1028" d="M10 731q2 121 80 199h141q-90 -72 -90 -193q0 -126 127 -116q20 210 113 319t252 109q51 0 92.5 -8.5t84.5 -34.5t72 -68t47.5 -115t18.5 -170q0 -62 -10 -157h-520q0 -387 258 -387q55 0 108.5 19.5t83.5 49.5l54 -108q-50 -44 -125.5 -69.5t-159.5 -25.5 q-184 0 -276 137t-97 382h-18q-120 0 -179 62t-57 175zM420 618h387q4 149 -41.5 223t-130.5 74q-195 0 -215 -297z" />
<glyph unicode="&#x4be;" horiz-adv-x="1294" d="M2 893q0 106 51 170h142q-54 -54 -54 -152q0 -65 35 -96t141 -24q11 322 127.5 494.5t331.5 172.5q208 0 313 -148.5t105 -428.5q0 -113 -14 -228h-701q12 -274 98.5 -404t262.5 -130q123 0 243 82l45 -129q-115 -82 -258 -95l-24 -344h-96l-31 344q-382 61 -402 676h-57 q-138 0 -199 60t-59 180zM477 791h559q4 26 4 112q0 85 -15 157.5t-45 131t-82 92t-120 33.5q-288 0 -301 -526z" />
<glyph unicode="&#x4bf;" horiz-adv-x="1028" d="M12 731q2 121 80 199h141q-90 -72 -90 -193q0 -56 29.5 -89.5t97.5 -26.5q20 210 113 319t252 109q51 0 92.5 -8.5t84.5 -34.5t72 -68t47.5 -115t18.5 -170q0 -62 -10 -157h-520q2 -188 62.5 -286.5t195.5 -98.5q55 0 109 19t83 48l54 -108q-76 -70 -209 -93l-25 -344 h-96l-31 347q-287 55 -297 516h-18q-120 0 -179 61t-57 174zM422 618h387q4 149 -41.5 223t-130.5 74q-195 0 -215 -297z" />
<glyph unicode="&#x4c0;" horiz-adv-x="477" d="M162 0v1434h153v-1434h-153z" />
<glyph unicode="&#x4c3;" horiz-adv-x="991" d="M131 0v1434h154v-668l71 29l373 639h176l-360 -586l-94 -78h98q118 -34 186.5 -101t102.5 -191t34 -324v-39q0 -307 -98.5 -436.5t-284.5 -108.5v141q130 0 180 96.5t50 337.5q0 285 -83.5 402t-275.5 117h-75v-664h-154z" />
<glyph unicode="&#x4c4;" horiz-adv-x="798" d="M121 0v1024h147v-481l70 28l248 453h159l-245 -430l-62 -55l70 -11q227 -64 227 -460v-35q0 -136 -26.5 -233t-75.5 -149.5t-112.5 -71t-143.5 -5.5v133q100 -17 155.5 68.5t55.5 257.5q0 215 -62 314t-184 104h-74v-451h-147z" />
<glyph unicode="&#x4c5;" horiz-adv-x="1042" d="M-8 10l22 140q46 -13 79.5 7t62.5 93q103 252 116 1184h625v-1301h156v-43l-152 -356h-102l73 266h-129v1292h-323q-19 -452 -46 -713t-79 -401q-67 -188 -203 -188q-61 0 -100 20z" />
<glyph unicode="&#x4c6;" horiz-adv-x="866" d="M-12 10l22 129q63 -18 96 23q64 79 87 466q10 164 14 396h506v-891h161v-43l-151 -350h-102l73 260h-129v891h-223q-3 -81 -5.5 -139t-6.5 -133t-9.5 -128.5t-13 -117t-18 -108t-24 -91t-30.5 -77t-38 -56t-47.5 -37.5t-57.5 -12q-69 0 -104 18z" />
<glyph unicode="&#x4c7;" horiz-adv-x="1097" d="M131 0v1434h154v-631h528v631h154v-1434v-57q0 -213 -67.5 -303t-219.5 -70v133q37 0 62 13t39 33t21 61.5t9 81t2 108.5v662h-528v-662h-154z" />
<glyph unicode="&#x4c8;" horiz-adv-x="888" d="M121 0v1024h147v-434h355v434h147v-1083q0 -190 -56.5 -279t-178.5 -88q-16 0 -52 4v129q87 -1 113.5 64.5t26.5 228.5v457h-355v-457h-147z" />
<glyph unicode="&#x4c9;" horiz-adv-x="1126" d="M131 0v1434h154v-631h528v631h154v-1301h168v-43l-152 -356h-102l73 266h-141v662h-528v-662h-154z" />
<glyph unicode="&#x4ca;" horiz-adv-x="923" d="M121 0v1024h147v-434h355v434h147v-891h162v-43l-152 -350h-102l74 260h-129v457h-355v-457h-147z" />
<glyph unicode="&#x4cb;" horiz-adv-x="997" d="M113 899v535h153v-500q0 -144 49.5 -205t151.5 -61q71 0 137.5 26.5t108.5 69.5v670h153v-1434h-176l-26 -264h-107v405h156v473q-48 -36 -122 -62t-157 -26q-70 0 -124.5 17t-100.5 57t-71 115.5t-25 183.5z" />
<glyph unicode="&#x4cc;" horiz-adv-x="811" d="M74 717v307h147v-276q0 -58 5 -98t19 -74t41.5 -51t69.5 -17q130 0 187 57v459h147v-1024h-153l-25 -260h-102v393h133v303q-85 -61 -221 -61q-85 0 -137 28.5t-81.5 105t-29.5 208.5z" />
<glyph unicode="&#x4cd;" horiz-adv-x="1333" d="M131 0v1434h129l346 -705l51 -168h5l49 170l327 703h136v-1301h169v-43l-151 -356h-102l73 266h-143v942l18 217h-8l-65 -203l-289 -622h-51l-303 622l-64 203h-8l29 -217v-942h-148z" />
<glyph unicode="&#x4ce;" horiz-adv-x="1101" d="M121 0v1024h147l224 -444l45 -134h4l49 138l207 440h151v-891h162v-43l-152 -350h-102l74 260h-129v608l14 195h-8l-62 -174l-190 -393h-53l-199 393l-55 174h-10l16 -193v-610h-133z" />
<glyph unicode="&#x4cf;" horiz-adv-x="419" d="M135 0v1434h148v-1434h-148z" />
<glyph unicode="&#x4d0;" horiz-adv-x="968" d="M10 0l432 1456h84l432 -1456h-159l-117 401h-406l-114 -401h-152zM197 1747l147 35q5 -77 42.5 -121.5t102.5 -44.5q64 0 101 44t43 120l131 -31q-36 -244 -277 -244q-126 0 -202 59.5t-88 182.5zM317 539h328l-125 442l-39 215h-4l-39 -219z" />
<glyph unicode="&#x4d1;" horiz-adv-x="819" d="M59 274q0 168 107 240t303 72q53 0 84 -2q6 64 6 112q0 118 -35 164.5t-127 46.5q-57 0 -125 -17.5t-112 -43.5l-49 117q126 77 323 77q67 0 116 -17.5t77.5 -45t46 -70t23 -84.5t5.5 -96q0 -85 -5 -240t-5 -221q0 -159 25 -270h-113l-35 121h-8q-75 -131 -250 -131 q-112 0 -182 77.5t-70 210.5zM143 1399l125 39q10 -89 48.5 -131.5t95.5 -42.5q56 0 94.5 44t48.5 128l113 -33q-17 -120 -88 -186t-172 -66q-102 0 -175.5 60.5t-89.5 187.5zM213 291q0 -80 39.5 -126t103.5 -46q80 0 129 37t70 94v217q-54 4 -82 4q-53 0 -97 -8.5t-82 -28 t-59.5 -56t-21.5 -87.5z" />
<glyph unicode="&#x4d2;" horiz-adv-x="968" d="M10 0l432 1456h84l432 -1456h-159l-117 401h-406l-114 -401h-152zM227 1626q0 43 26.5 69.5t70.5 26.5q43 0 68.5 -26.5t25.5 -69.5t-25.5 -68.5t-68.5 -25.5q-44 0 -70.5 25.5t-26.5 68.5zM317 539h328l-125 442l-39 215h-4l-39 -219zM551 1626q0 43 25.5 69.5 t68.5 26.5q44 0 70 -26.5t26 -69.5t-26 -68.5t-70 -25.5q-43 0 -68.5 25.5t-25.5 68.5z" />
<glyph unicode="&#x4d3;" horiz-adv-x="819" d="M59 274q0 168 107 240t303 72q53 0 84 -2q6 64 6 112q0 118 -35 164.5t-127 46.5q-57 0 -125 -17.5t-112 -43.5l-49 117q126 77 323 77q67 0 116 -17.5t77.5 -45t46 -70t23 -84.5t5.5 -96q0 -85 -5 -240t-5 -221q0 -159 25 -270h-113l-35 121h-8q-75 -131 -250 -131 q-112 0 -182 77.5t-70 210.5zM154 1298q0 47 23.5 74t64.5 27t64.5 -27t23.5 -74q0 -43 -23.5 -69.5t-64.5 -26.5t-64.5 26.5t-23.5 69.5zM213 291q0 -80 39.5 -126t103.5 -46q80 0 129 37t70 94v217q-54 4 -82 4q-53 0 -97 -8.5t-82 -28t-59.5 -56t-21.5 -87.5zM479 1298 q0 47 23.5 74t64.5 27t64.5 -27t23.5 -74q0 -43 -23.5 -69.5t-64.5 -26.5t-64.5 26.5t-23.5 69.5z" />
<glyph unicode="&#x4d4;" horiz-adv-x="1398" d="M-37 0l686 1434h641v-142h-485v-485h444v-141h-444v-525h493v-141h-647v408h-338l-184 -408h-166zM381 545h270v661h-6l-53 -200z" />
<glyph unicode="&#x4d5;" horiz-adv-x="1314" d="M59 279q0 88 29 150t84.5 97t126.5 50.5t164 15.5q28 0 90 -4q6 65 6 112q0 118 -35 163.5t-127 45.5q-58 0 -127 -20.5t-116 -52.5l-45 114q120 90 325 90q171 0 223 -131q39 70 109.5 105t148.5 35q50 0 92 -9t85 -36t72.5 -70t48 -116.5t18.5 -170.5q0 -60 -10 -155 h-519q2 -196 59.5 -289.5t192.5 -93.5q54 0 110 19.5t87 45.5l53 -108q-113 -91 -289 -91q-105 0 -184 45t-117 130h-12q-95 -166 -287 -166q-116 0 -186 80t-70 215zM213 295q0 -74 39.5 -126t101.5 -52q80 0 132 43.5t69 103.5v207q-54 4 -82 4q-53 0 -97 -8.5t-82 -28 t-59.5 -56t-21.5 -87.5zM702 612h385q4 151 -40.5 227t-131.5 76q-193 0 -213 -303z" />
<glyph unicode="&#x4d6;" horiz-adv-x="878" d="M131 0v1434h637v-142h-483v-485h444v-141h-444v-525h493v-141h-647zM162 1747l147 35q5 -76 43 -121t103 -45q64 0 100.5 44t42.5 120l131 -31q-36 -244 -276 -244q-127 0 -203 59.5t-88 182.5z" />
<glyph unicode="&#x4d7;" horiz-adv-x="845" d="M76 512q0 261 95 399t273 138q51 0 92.5 -8.5t84.5 -34.5t72.5 -68t48 -115t18.5 -170q0 -62 -10 -157h-521q0 -387 258 -387q55 0 109 19.5t84 49.5l53 -108q-50 -45 -125 -70t-159 -25q-188 0 -280.5 142t-92.5 395zM172 1399l125 39q10 -90 48 -132t95 -42q56 0 95 44 t49 128l112 -33q-17 -120 -88 -186t-172 -66q-102 0 -175 60.5t-89 187.5zM231 618h387q4 149 -41.5 223t-130.5 74q-195 0 -215 -297z" />
<glyph unicode="&#x4d8;" horiz-adv-x="1052" d="M84 563q0 140 16 236h711q-14 266 -95.5 392t-246.5 126q-68 0 -139.5 -25.5t-116.5 -56.5l-45 129q144 94 326 94q238 0 354.5 -176.5t116.5 -564.5q0 -362 -113.5 -552t-347.5 -190q-206 0 -313 155.5t-107 432.5zM238 537q0 -87 16 -161t48 -133t85 -92.5t121 -33.5 q149 0 225 138t78 407h-565q-8 -55 -8 -125z" />
<glyph unicode="&#x4d9;" horiz-adv-x="835" d="M76 416q0 57 10 149h524q-6 185 -64 267.5t-194 82.5q-57 0 -111 -19t-83 -48l-56 110q52 42 129 66.5t162 24.5q186 0 276.5 -139t90.5 -398q0 -267 -92.5 -402t-261.5 -135q-49 0 -93.5 12t-89 43t-76 79t-51.5 127t-20 180zM219 442q-7 -156 46 -244.5t143 -88.5 q95 0 148.5 86.5t49.5 246.5h-387z" />
<glyph unicode="&#x4da;" horiz-adv-x="1052" d="M84 563q0 140 16 236h711q-14 266 -95.5 392t-246.5 126q-68 0 -139.5 -25.5t-116.5 -56.5l-45 129q144 94 326 94q238 0 354.5 -176.5t116.5 -564.5q0 -362 -113.5 -552t-347.5 -190q-206 0 -313 155.5t-107 432.5zM238 537q0 -87 16 -161t48 -133t85 -92.5t121 -33.5 q149 0 225 138t78 407h-565q-8 -55 -8 -125zM252 1626q0 43 26 69.5t70 26.5q43 0 68.5 -26.5t25.5 -69.5t-25.5 -68.5t-68.5 -25.5q-44 0 -70 25.5t-26 68.5zM575 1626q0 43 26 69.5t69 26.5q44 0 70 -26.5t26 -69.5t-26 -68.5t-70 -25.5q-43 0 -69 25.5t-26 68.5z" />
<glyph unicode="&#x4db;" horiz-adv-x="835" d="M76 416q0 57 10 149h524q-6 185 -64 267.5t-194 82.5q-57 0 -111 -19t-83 -48l-56 110q52 42 129 66.5t162 24.5q186 0 276.5 -139t90.5 -398q0 -267 -92.5 -402t-261.5 -135q-49 0 -93.5 12t-89 43t-76 79t-51.5 127t-20 180zM154 1298q0 47 23.5 74t64.5 27t64.5 -27 t23.5 -74q0 -43 -23.5 -69.5t-64.5 -26.5t-64.5 26.5t-23.5 69.5zM219 442q-7 -156 46 -244.5t143 -88.5q95 0 148.5 86.5t49.5 246.5h-387zM479 1298q0 47 23.5 74t64.5 27t64.5 -27t23.5 -74q0 -43 -23.5 -69.5t-64.5 -26.5t-64.5 26.5t-23.5 69.5z" />
<glyph unicode="&#x4dc;" horiz-adv-x="1339" d="M-4 0l352 643l80 76l-76 72l-332 643h181l315 -643h72v643h147v-668l70 29l315 639h172l-321 -623l-68 -66l84 -81l356 -664h-190l-344 666h-74v-666h-147v690l-68 -28l-344 -662h-180zM408 1626q0 43 26 69.5t70 26.5q43 0 68.5 -26.5t25.5 -69.5t-25.5 -68.5 t-68.5 -25.5q-44 0 -70 25.5t-26 68.5zM731 1626q0 43 25.5 69.5t68.5 26.5q44 0 70.5 -26.5t26.5 -69.5t-26.5 -68.5t-70.5 -25.5q-43 0 -68.5 25.5t-25.5 68.5z" />
<glyph unicode="&#x4dd;" horiz-adv-x="1099" d="M0 0l252 469l55 61l-84 78l-205 416h156l213 -442h84v442h147v-463l76 29l213 434h154l-215 -416l-66 -65l84 -82l236 -461h-170l-230 461h-82v-461h-147v481l-76 -28l-229 -453h-166zM297 1298q0 47 23.5 74t64.5 27t64.5 -27t23.5 -74q0 -43 -23.5 -69.5t-64.5 -26.5 t-64.5 26.5t-23.5 69.5zM623 1298q0 47 23.5 74t64.5 27t64.5 -27t23.5 -74q0 -43 -23.5 -69.5t-64.5 -26.5t-64.5 26.5t-23.5 69.5z" />
<glyph unicode="&#x4de;" horiz-adv-x="888" d="M63 29l41 139q90 -51 267 -51q116 0 193 78.5t77 220.5q0 128 -67.5 190.5t-192.5 73.5q-27 2 -74 2h-84v133h37q104 0 148 10q86 21 142 87t56 161q0 128 -62 186t-169 58q-158 0 -242 -51l-41 125q41 26 128.5 46.5t185.5 20.5q59 0 109.5 -10t98 -35t81 -64.5 t53.5 -101t20 -141.5q0 -110 -54 -199.5t-159 -132.5v-8q118 -24 183 -111.5t65 -232.5q0 -114 -35.5 -202t-97.5 -140.5t-139 -78.5t-166 -26q-199 0 -302 54zM143 1626q0 43 26.5 69.5t70.5 26.5q43 0 68.5 -26.5t25.5 -69.5t-25.5 -68.5t-68.5 -25.5q-44 0 -70.5 25.5 t-26.5 68.5zM467 1626q0 43 25.5 69.5t68.5 26.5q44 0 70 -26.5t26 -69.5t-26 -68.5t-70 -25.5q-43 0 -68.5 25.5t-25.5 68.5z" />
<glyph unicode="&#x4df;" horiz-adv-x="718" d="M53 39l39 127q76 -49 203 -49q99 0 150 47t51 135q0 160 -205 160h-92v127h112q58 0 106 49.5t48 114.5q0 79 -41.5 116t-128.5 37q-58 0 -111 -17t-86 -40l-43 117q115 73 277 73q136 0 208 -63t72 -187q0 -79 -39 -143.5t-106 -93.5v-8q92 -23 134 -85.5t42 -168.5 q0 -135 -89 -219t-261 -84q-142 0 -240 55zM78 1298q0 47 23.5 74t64.5 27t64.5 -27t23.5 -74q0 -43 -23.5 -69.5t-64.5 -26.5t-64.5 26.5t-23.5 69.5zM403 1298q0 47 24 74t65 27t64.5 -27t23.5 -74q0 -43 -23.5 -69.5t-64.5 -26.5t-65 26.5t-24 69.5z" />
<glyph unicode="&#x4e0;" horiz-adv-x="923" d="M84 41l39 141q43 -27 113.5 -46t140.5 -19q135 0 214 83.5t79 219.5q0 280 -318 280h-143v56l301 467l72 88l-101 -19h-389v142h688v-60l-325 -495l-62 -62v-6l60 16q165 0 267.5 -104t102.5 -287q0 -217 -119.5 -339t-324.5 -122q-82 0 -165 18.5t-130 47.5z" />
<glyph unicode="&#x4e1;" horiz-adv-x="786" d="M57 -381l43 131q77 -47 201 -47q116 0 190 83.5t74 219.5q0 145 -68.5 218t-195.5 73h-117v53l238 463l76 90l-107 -12h-328v133h605v-59l-258 -488l-60 -59v-4l56 12q134 -8 220.5 -112t86.5 -285q0 -217 -115.5 -338t-298.5 -121q-142 0 -242 49z" />
<glyph unicode="&#x4e2;" horiz-adv-x="1114" d="M131 0v1434h154v-953l-15 -184h9l71 192l533 945h100v-1434h-154v938l13 188h-6l-72 -192l-531 -934h-102zM301 1599v127h530v-127h-530z" />
<glyph unicode="&#x4e3;" horiz-adv-x="899" d="M121 0v1024h147v-608l-12 -150h8l68 168l350 590h96v-1024h-147v590l12 155h-8l-72 -172l-346 -573h-96zM205 1196v121h497v-121h-497z" />
<glyph unicode="&#x4e4;" horiz-adv-x="1114" d="M131 0v1434h154v-953l-15 -184h9l71 192l533 945h100v-1434h-154v938l13 188h-6l-72 -192l-531 -934h-102zM305 1626q0 43 26 69.5t70 26.5q43 0 69 -26.5t26 -69.5t-26 -68.5t-69 -25.5q-44 0 -70 25.5t-26 68.5zM629 1626q0 43 25.5 69.5t68.5 26.5q44 0 70 -26.5 t26 -69.5t-26 -68.5t-70 -25.5q-43 0 -68.5 25.5t-25.5 68.5z" />
<glyph unicode="&#x4e5;" horiz-adv-x="899" d="M121 0v1024h147v-608l-12 -150h8l68 168l350 590h96v-1024h-147v590l12 155h-8l-72 -172l-346 -573h-96zM207 1298q0 47 23.5 74t64.5 27t64.5 -27t23.5 -74q0 -43 -23.5 -69.5t-64.5 -26.5t-64.5 26.5t-23.5 69.5zM532 1298q0 47 24 74t65 27t64.5 -27t23.5 -74 q0 -43 -23.5 -69.5t-64.5 -26.5t-65 26.5t-24 69.5z" />
<glyph unicode="&#x4e6;" horiz-adv-x="1124" d="M88 717q0 741 473 741q475 0 475 -741q0 -366 -118.5 -554t-356.5 -188q-473 0 -473 742zM250 717q0 -98 10.5 -185t34.5 -164t60 -132t88.5 -87t117.5 -32q313 0 313 600q0 123 -17.5 228t-53.5 190t-98 133.5t-144 48.5q-311 0 -311 -600zM305 1626q0 43 26 69.5 t70 26.5q43 0 69 -26.5t26 -69.5t-26 -68.5t-69 -25.5q-44 0 -70 25.5t-26 68.5zM629 1626q0 43 25.5 69.5t68.5 26.5q44 0 70 -26.5t26 -69.5t-26 -68.5t-70 -25.5q-43 0 -68.5 25.5t-25.5 68.5z" />
<glyph unicode="&#x4e7;" horiz-adv-x="884" d="M76 512q0 537 366 537q188 0 277.5 -132.5t89.5 -404.5t-94.5 -404.5t-272.5 -132.5q-188 0 -277 132.5t-89 404.5zM193 1298q0 47 23.5 74t64.5 27t64.5 -27t23.5 -74q0 -43 -23.5 -69.5t-64.5 -26.5t-64.5 26.5t-23.5 69.5zM229 512q0 -403 213 -403q108 0 160.5 96.5 t52.5 306.5q0 403 -213 403q-106 0 -159.5 -98t-53.5 -305zM518 1298q0 47 23.5 74t64.5 27t64.5 -27t23.5 -74q0 -43 -23.5 -69.5t-64.5 -26.5t-64.5 26.5t-23.5 69.5z" />
<glyph unicode="&#x4e8;" horiz-adv-x="1124" d="M88 717q0 741 473 741q475 0 475 -741q0 -366 -118.5 -554t-356.5 -188q-473 0 -473 742zM250 659q4 -114 23.5 -209.5t56 -171.5t95.5 -118.5t136 -42.5q298 0 313 542h-624zM250 797h624q-6 110 -27 201t-57.5 164t-95 114t-133.5 41q-142 0 -221.5 -130t-89.5 -390z " />
<glyph unicode="&#x4e9;" horiz-adv-x="884" d="M76 512q0 266 94 401.5t272 135.5q367 0 367 -537q0 -268 -94 -402.5t-273 -134.5q-366 0 -366 537zM229 451q6 -170 64 -256t149 -86q200 0 213 342h-426zM229 571h426q-19 344 -213 344q-90 0 -148 -80.5t-65 -263.5z" />
<glyph unicode="&#x4ea;" horiz-adv-x="1124" d="M88 717q0 741 473 741q475 0 475 -741q0 -366 -118.5 -554t-356.5 -188q-473 0 -473 742zM250 659q4 -114 23.5 -209.5t56 -171.5t95.5 -118.5t136 -42.5q298 0 313 542h-624zM250 797h624q-6 110 -27 201t-57.5 164t-95 114t-133.5 41q-142 0 -221.5 -130t-89.5 -390z M305 1626q0 43 26 69.5t70 26.5q43 0 69 -26.5t26 -69.5t-26 -68.5t-69 -25.5q-44 0 -70 25.5t-26 68.5zM629 1626q0 43 25.5 69.5t68.5 26.5q44 0 70 -26.5t26 -69.5t-26 -68.5t-70 -25.5q-43 0 -68.5 25.5t-25.5 68.5z" />
<glyph unicode="&#x4eb;" horiz-adv-x="884" d="M76 512q0 266 94 401.5t272 135.5q367 0 367 -537q0 -268 -94 -402.5t-273 -134.5q-366 0 -366 537zM193 1298q0 47 23.5 74t64.5 27t64.5 -27t23.5 -74q0 -43 -23.5 -69.5t-64.5 -26.5t-64.5 26.5t-23.5 69.5zM229 451q6 -170 64 -256t149 -86q200 0 213 342h-426z M229 571h426q-19 344 -213 344q-90 0 -148 -80.5t-65 -263.5zM518 1298q0 47 23.5 74t64.5 27t64.5 -27t23.5 -74q0 -43 -23.5 -69.5t-64.5 -26.5t-64.5 26.5t-23.5 69.5z" />
<glyph unicode="&#x4ec;" horiz-adv-x="952" d="M61 1380q121 78 301 78q115 0 205 -40.5t157.5 -126.5t103.5 -230.5t36 -341.5q0 -159 -26.5 -285.5t-73.5 -211.5t-114.5 -141t-145.5 -81t-170 -25q-162 0 -268 52l43 139q40 -21 104 -35t129 -14q73 0 135.5 30t114.5 92.5t83.5 170.5t35.5 252h-469v137h469 q-10 253 -107.5 385.5t-257.5 132.5q-136 0 -240 -64zM123 1626q0 43 26 69.5t70 26.5q43 0 68.5 -26.5t25.5 -69.5t-25.5 -68.5t-68.5 -25.5q-44 0 -70 25.5t-26 68.5zM446 1626q0 43 26 69.5t69 26.5q44 0 70 -26.5t26 -69.5t-26 -68.5t-70 -25.5q-43 0 -69 25.5t-26 68.5 z" />
<glyph unicode="&#x4ed;" horiz-adv-x="761" d="M57 25l41 131q77 -47 195 -47q227 0 239 344h-339v127h339q-6 161 -65 248t-164 87q-116 0 -194 -59l-52 117q102 76 271 76q183 0 270.5 -132.5t87.5 -404.5q0 -265 -98.5 -401t-280.5 -136q-158 0 -250 50zM78 1298q0 47 23.5 74t64.5 27t64.5 -27t23.5 -74 q0 -43 -23.5 -69.5t-64.5 -26.5t-64.5 26.5t-23.5 69.5zM403 1298q0 47 24 74t65 27t64.5 -27t23.5 -74q0 -43 -23.5 -69.5t-64.5 -26.5t-65 26.5t-24 69.5z" />
<glyph unicode="&#x4ee;" horiz-adv-x="917" d="M6 1434h180l281 -736l39 -182h10l33 189l213 729h158l-293 -932q-100 -317 -155.5 -414.5t-166.5 -97.5q-96 0 -153 43l45 131q46 -33 108 -33q81 0 129 240zM223 1599v127h531v-127h-531z" />
<glyph unicode="&#x4ef;" horiz-adv-x="770" d="M14 1024h168l193 -662l43 -198h10l31 198l155 662h150l-244 -920q-20 -77 -33 -124t-32.5 -109t-35.5 -99t-38.5 -78t-44.5 -63t-50.5 -36.5t-60.5 -14.5q-54 0 -100 19l25 139q64 -24 115 34.5t81 227.5zM152 1196v121h497v-121h-497z" />
<glyph unicode="&#x4f0;" horiz-adv-x="917" d="M6 1434h180l281 -736l39 -182h10l33 189l213 729h158l-293 -932q-100 -317 -155.5 -414.5t-166.5 -97.5q-96 0 -153 43l45 131q46 -33 108 -33q81 0 129 240zM227 1626q0 43 26.5 69.5t70.5 26.5q43 0 68.5 -26.5t25.5 -69.5t-25.5 -68.5t-68.5 -25.5q-44 0 -70.5 25.5 t-26.5 68.5zM551 1626q0 43 25.5 69.5t68.5 26.5q44 0 70 -26.5t26 -69.5t-26 -68.5t-70 -25.5q-43 0 -68.5 25.5t-25.5 68.5z" />
<glyph unicode="&#x4f1;" horiz-adv-x="770" d="M14 1024h168l193 -662l43 -198h10l31 198l155 662h150l-244 -920q-20 -77 -33 -124t-32.5 -109t-35.5 -99t-38.5 -78t-44.5 -63t-50.5 -36.5t-60.5 -14.5q-54 0 -100 19l25 139q64 -24 115 34.5t81 227.5zM154 1298q0 47 23.5 74t64.5 27t64.5 -27t23.5 -74 q0 -43 -23.5 -69.5t-64.5 -26.5t-64.5 26.5t-23.5 69.5zM479 1298q0 47 23.5 74t64.5 27t64.5 -27t23.5 -74q0 -43 -23.5 -69.5t-64.5 -26.5t-64.5 26.5t-23.5 69.5z" />
<glyph unicode="&#x4f2;" horiz-adv-x="917" d="M6 1434h180l281 -736l39 -182h10l33 189l213 729h158l-293 -932q-100 -317 -155.5 -414.5t-166.5 -97.5q-96 0 -153 43l45 131q46 -33 108 -33q81 0 129 240zM285 1518l104 223h166v-33l-164 -190h-106zM502 1518l166 223h176v-33l-236 -190h-106z" />
<glyph unicode="&#x4f3;" horiz-adv-x="770" d="M14 1024h168l193 -662l43 -198h10l31 198l155 662h150l-244 -920q-20 -77 -33 -124t-32.5 -109t-35.5 -99t-38.5 -78t-44.5 -63t-50.5 -36.5t-60.5 -14.5q-54 0 -100 19l25 139q64 -24 115 34.5t81 227.5zM254 1169l57 265h142v-33l-119 -232h-80zM442 1169l121 265h154 v-33l-189 -232h-86z" />
<glyph unicode="&#x4f4;" horiz-adv-x="997" d="M113 899v535h153v-500q0 -144 49.5 -205t151.5 -61q71 0 137.5 26.5t108.5 69.5v670h153v-1434h-153v614q-48 -36 -122 -62t-157 -26q-70 0 -124.5 17t-100.5 57t-71 115.5t-25 183.5zM244 1626q0 43 26 69.5t70 26.5q43 0 68.5 -26.5t25.5 -69.5t-25.5 -68.5 t-68.5 -25.5q-44 0 -70 25.5t-26 68.5zM567 1626q0 43 26 69.5t69 26.5q44 0 70 -26.5t26 -69.5t-26 -68.5t-70 -25.5q-43 0 -69 25.5t-26 68.5z" />
<glyph unicode="&#x4f5;" horiz-adv-x="811" d="M74 678v346h147v-299q0 -114 27.5 -168.5t107.5 -54.5q124 0 187 59v463h147v-1024h-147v430q-81 -61 -217 -61q-126 0 -189 69.5t-63 239.5zM131 1298q0 47 23.5 74t64.5 27t64.5 -27t23.5 -74q0 -43 -23.5 -69.5t-64.5 -26.5t-64.5 26.5t-23.5 69.5zM457 1298 q0 47 23.5 74t64.5 27t64.5 -27t23.5 -74q0 -43 -23.5 -69.5t-64.5 -26.5t-64.5 26.5t-23.5 69.5z" />
<glyph unicode="&#x4f6;" horiz-adv-x="731" d="M131 0v1434h627v-142h-473v-1151h155v-405h-106l-25 264h-178z" />
<glyph unicode="&#x4f7;" horiz-adv-x="606" d="M121 0v1024h487v-133h-340v-758h127v-393h-100l-27 260h-147z" />
<glyph unicode="&#x4f8;" horiz-adv-x="1273" d="M131 12v1422h154v-557q75 18 145 18q68 0 124 -11t109 -41t89 -77t57.5 -123.5t21.5 -177.5q0 -245 -113 -363t-325 -118q-163 0 -262 28zM285 139q38 -14 123 -14q126 0 194 81.5t68 244.5q0 168 -70.5 235.5t-198.5 67.5q-61 0 -116 -19v-596zM381 1626q0 43 26 69.5 t70 26.5q43 0 68.5 -26.5t25.5 -69.5t-25.5 -68.5t-68.5 -25.5q-44 0 -70 25.5t-26 68.5zM705 1626q0 43 25.5 69.5t68.5 26.5q44 0 70 -26.5t26 -69.5t-26 -68.5t-70 -25.5q-43 0 -68.5 25.5t-25.5 68.5zM989 0v1434h154v-1434h-154z" />
<glyph unicode="&#x4f9;" horiz-adv-x="1101" d="M121 0v1024h147v-391q77 14 148 14q295 0 295 -305q0 -187 -84 -270.5t-275 -83.5q-117 0 -231 12zM268 133q62 -12 113 -12q95 0 135.5 50.5t40.5 152.5q0 97 -39.5 146.5t-132.5 49.5q-62 0 -117 -14v-373zM301 1298q0 47 23.5 74t64.5 27t64.5 -27t23.5 -74 q0 -43 -23.5 -69.5t-64.5 -26.5t-64.5 26.5t-23.5 69.5zM627 1298q0 47 23.5 74t64.5 27t64.5 -27t23.5 -74q0 -43 -23.5 -69.5t-64.5 -26.5t-64.5 26.5t-23.5 69.5zM834 0v1024h147v-1024h-147z" />
<glyph unicode="&#x4fc;" horiz-adv-x="1019" d="M39 0l377 729l-344 705h184l223 -486l41 -121l41 121l236 486h170l-357 -691l224 -440q102 -199 102 -366q0 -208 -72.5 -295t-226.5 -68v133q38 0 65.5 11t42.5 28.5t23.5 45.5t11 54t2.5 62q0 93 -22 166t-62 155l-141 285l-49 127l-43 -127l-254 -514h-172z" />
<glyph unicode="&#x4fd;" horiz-adv-x="847" d="M39 0l291 524l-271 500h181l147 -283l45 -127l47 127l152 283h166l-275 -492l156 -274q102 -186 102 -332q0 -196 -77.5 -283.5t-229.5 -64.5v133q89 -1 124.5 41.5t35.5 138.5q0 131 -86 291l-74 129l-51 121l-49 -121l-168 -311h-166z" />
<glyph unicode="&#x2000;" horiz-adv-x="891" />
<glyph unicode="&#x2001;" horiz-adv-x="1782" />
<glyph unicode="&#x2002;" horiz-adv-x="891" />
<glyph unicode="&#x2003;" horiz-adv-x="1782" />
<glyph unicode="&#x2004;" horiz-adv-x="594" />
<glyph unicode="&#x2005;" horiz-adv-x="445" />
<glyph unicode="&#x2006;" horiz-adv-x="297" />
<glyph unicode="&#x2007;" horiz-adv-x="297" />
<glyph unicode="&#x2008;" horiz-adv-x="222" />
<glyph unicode="&#x2009;" horiz-adv-x="356" />
<glyph unicode="&#x200a;" horiz-adv-x="99" />
<glyph unicode="&#x2010;" horiz-adv-x="595" d="M96 514v141h404v-141h-404z" />
<glyph unicode="&#x2011;" horiz-adv-x="595" d="M96 514v141h404v-141h-404z" />
<glyph unicode="&#x2012;" horiz-adv-x="595" d="M96 514v141h404v-141h-404z" />
<glyph unicode="&#x2013;" horiz-adv-x="1085" d="M190 518v141h705v-141h-705z" />
<glyph unicode="&#x2014;" horiz-adv-x="1355" d="M195 518v141h966v-141h-966z" />
<glyph unicode="&#x2018;" horiz-adv-x="331" d="M63 1309q0 62 16.5 114.5t43.5 86.5t49 53t45 32l47 -67q-87 -61 -84 -162q38 6 62 -21t24 -75q0 -47 -25.5 -75t-66.5 -28q-50 0 -80.5 36.5t-30.5 105.5z" />
<glyph unicode="&#x2019;" horiz-adv-x="331" d="M63 1350q0 46 26.5 73t68.5 27q51 0 80.5 -35t29.5 -102q0 -62 -15.5 -113.5t-41.5 -85t-48 -53.5t-46 -33l-47 62q38 25 61.5 67t22.5 94q-38 -6 -64.5 21.5t-26.5 77.5z" />
<glyph unicode="&#x201a;" horiz-adv-x="331" d="M63 102q0 46 26.5 73.5t68.5 27.5q51 0 80.5 -35t29.5 -102q0 -62 -15.5 -113.5t-41.5 -85t-48 -53.5t-46 -33l-47 61q38 25 61.5 67t22.5 95q-38 -6 -64.5 21t-26.5 77z" />
<glyph unicode="&#x201c;" horiz-adv-x="589" d="M63 1309q0 62 16.5 114.5t43.5 86.5t49 53t45 32l47 -67q-87 -61 -84 -162q38 6 62 -21t24 -75q0 -47 -25.5 -75t-66.5 -28q-50 0 -80.5 36.5t-30.5 105.5zM322 1309q0 62 16.5 114.5t43.5 86.5t48.5 53t44.5 32l47 -67q-87 -61 -84 -162q38 6 62 -21t24 -75 q0 -47 -25.5 -75t-66.5 -28q-49 0 -79.5 36.5t-30.5 105.5z" />
<glyph unicode="&#x201d;" horiz-adv-x="589" d="M63 1350q0 46 26.5 73t68.5 27q51 0 80.5 -35t29.5 -102q0 -62 -15.5 -113.5t-41.5 -85t-48 -53.5t-46 -33l-47 62q38 25 61.5 67t22.5 94q-38 -6 -64.5 21.5t-26.5 77.5zM322 1350q0 46 26 73t68 27q51 0 80.5 -35t29.5 -102q0 -62 -15.5 -113.5t-41.5 -85t-48 -53.5 t-46 -33l-47 62q38 25 61.5 67t22.5 94q-38 -6 -64 21.5t-26 77.5z" />
<glyph unicode="&#x201e;" horiz-adv-x="589" d="M63 102q0 46 26.5 73.5t68.5 27.5q51 0 80.5 -35t29.5 -102q0 -62 -15.5 -113.5t-41.5 -85t-48 -53.5t-46 -33l-47 61q38 25 61.5 67t22.5 95q-38 -6 -64.5 21t-26.5 77zM322 102q0 47 26 74t68 27q51 0 80.5 -35t29.5 -102q0 -62 -15.5 -113.5t-41.5 -85t-48 -53.5 t-46 -33l-47 61q38 25 61.5 67t22.5 95q-38 -6 -64 21t-26 77z" />
<glyph unicode="&#x2026;" horiz-adv-x="1345" d="M125 92q0 56 27 85.5t75 29.5t75.5 -29.5t27.5 -85.5q0 -58 -27 -87.5t-76 -29.5q-102 0 -102 117zM582 92q0 56 27 85.5t75 29.5t75 -29.5t27 -85.5q0 -117 -102 -117t-102 117zM1040 92q0 56 27.5 85.5t75.5 29.5t75 -29.5t27 -85.5q0 -117 -102 -117q-49 0 -76 29.5 t-27 87.5z" />
<glyph unicode="&#x202f;" horiz-adv-x="356" />
<glyph unicode="&#x2039;" horiz-adv-x="495" d="M61 530l265 471l102 -67l-168 -318l-78 -84l78 -73l178 -312l-102 -69z" />
<glyph unicode="&#x203a;" horiz-adv-x="495" d="M57 930l105 71l272 -452l-262 -471l-102 67l166 318l79 84l-79 74z" />
<glyph unicode="&#x205f;" horiz-adv-x="445" />
<glyph unicode="&#x20ac;" d="M25 526l32 127h88v64q0 59 2 82h-122l32 129h103q38 276 161 403t302 127q160 0 251 -45l-40 -135q-80 39 -207 39q-58 -3 -104.5 -22t-89.5 -61t-73.5 -119t-46.5 -187h457l-31 -129h-438q-2 -23 -2 -82q0 -39 2 -64h406l-31 -127h-365q29 -211 113.5 -310t222.5 -99 q132 0 209 57l35 -123q-91 -76 -273 -76q-401 0 -462 551h-131z" />
<glyph unicode="&#x2122;" horiz-adv-x="1497" d="M70 1300v134h583v-134h-217v-604h-147v604h-219zM717 696v738h145l168 -342l45 -119l49 123l154 338h147v-738h-137v342l21 211h-9l-63 -174l-137 -287h-70l-139 285l-60 176h-8l27 -209v-344h-133z" />
<glyph unicode="&#xe000;" horiz-adv-x="1024" d="M0 0v1024h1024v-1024h-1024z" />
</font>
</defs>
</svg>
